Cruel.Intentions.1999.1080p.B Full Torrent Magnet Download

Download Torrent Cruel.Intentions.1999.1080p.B Movie Full in HD Result. Movie Cruel.Intentions.1999.1080p.B Torrent Download full. Movie Cruel.Intentions.1999.1080p.B torrent Magnet Download Full. Cruel.Intentions.1999.1080p.B Full Movie Torrent Download And Magnet Download For your PC And Mobiles. Latest Movie Cruel.Intentions.1999.1080p.B Download Link In Bottom.

Torrent And Magnet Links Below

Quote:

*****************************************************************

*******************SCREENSHOTS(Click to enlarge)*******************

*******************************MEDIAINFO****************************

18+.Cruel.Intentions.1999.1080p.BluRay.x264.LLG.mp4

Format : MPEG-4

Format profile : Base Media

Codec ID : isom (isom/iso2/avc1/mp41)

File size : 2.04 GiB

Duration : 1 h 37 min

Overall bit rate mode : Variable

Overall bit rate : 2 994 kb/s

Writing application : Lavf58.29.100

Video

ID : 1

Format : AVC

Format/Info : Advanced Video Codec

Format profile : [email protected]
Format settings : CABAC / 1 Ref Frames

Format settings, CABAC : Yes

Format settings, Reference frames : 1 frame

Codec ID : avc1

Codec ID/Info : Advanced Video Coding

Duration : 1 h 37 min

Bit rate mode : Variable

Bit rate : 1 589 kb/s

Maximum bit rate : 4 500 kb/s

Width : 1 920 pixels

Height : 1 040 pixels

Display aspect ratio : 1.85:1

Frame rate mode : Constant

Frame rate : 23.976 (23976/1000) FPS

Color space : YUV

Chroma subsampling : 4:2:0

Bit depth : 8 bits

Scan type : Progressive

Bits/(Pixel*Frame) : 0.033

Stream size : 1.08 GiB (53%)

Language : English

Codec configuration box : avcC

Audio

ID : 2

Format : DTS

Format/Info : Digital Theater Systems

Codec ID : mp4a-A9

Duration : 1 h 37 min

Bit rate mode : Constant

Bit rate : 1 401 kb/s

Channel(s) : 6 channels

Channel layout : C L R Ls Rs LFE

Sampling rate : 48.0 kHz

Frame rate : 93.750 FPS (512 SPF)

Bit depth : 16 bits

Compression mode : Lossy

Stream size : 977 MiB (47%)

Language : English

Default : Yes

Alternate group : 1

********************************************************

Cruel.Intentions.1999.1080p.BDownload Torrent Magnet

#CruelIntentions19991080pB