Coming 2 America (2021) 2160p Full Torrent Magnet Download

Download Torrent Coming 2 America (2021) 2160p Movie Full in HD Result. Movie Coming 2 America (2021) 2160p Torrent Download full. Movie Coming 2 America (2021) 2160p torrent Magnet Download Full. Coming 2 America (2021) 2160p Full Movie Torrent Download And Magnet Download For your PC And Mobiles. Latest Movie Coming 2 America (2021) 2160p Download Link In Bottom.

Torrent And Magnet Links Below

www.imdb.com/title/tt6802400/

The African monarch Akeem learns he has a long-lost son in the United States and must return to America to meet this unexpected heir and build a relationship with his son.

Source: naisu (web)

Format : Matroska

Format version : Version 4

File size : 2.97 GiB

Duration : 1 h 48 min

Overall bit rate : 3 923 kb/s

Writing application : HandBrake 1.3.3 2020061300

Writing library : Lavf58.29.100

Video

ID : 1

Format : HEVC

Format/Info : High Efficiency Video Coding

Format profile : Main [email protected]@High

Codec ID : V_MPEGH/ISO/HEVC

Duration : 1 h 48 min

Bit rate : 3 525 kb/s

Width : 3 840 pixels

Height : 1 920 pixels

Display aspect ratio : 2.000

Frame rate mode : Constant

Frame rate : 23.976 (24000/1001) FPS

Color space : YUV

Chroma subsampling : 4:2:0

Bit depth : 10 bits

Bits/(Pixel*Frame) : 0.020

Stream size : 2.67 GiB (90%)

Writing library : x265 3.2.1+1-b5c86a64bbbe:[Windows][GCC 9.2.0][64 bit] 10bit

Color range : Full

Color primaries : BT.2020

Transfer characteristics : PQ

Matrix coefficients : BT.2020 non-constant

Audio

ID : 2

Format : AC-3

Format/Info : Audio Coding 3

Commercial name : Dolby Digital

Codec ID : A_AC3

Duration : 1 h 48 min

Bit rate mode : Constant

Bit rate : 320 kb/s

Channel(s) : 6 channels

Channel layout : L R C LFE Ls Rs

Sampling rate : 48.0 kHz

Frame rate : 31.250 FPS (1536 SPF)

Compression mode : Lossy

Delay relative to video : -5 ms

Stream size : 248 MiB (8%)

Title : Surround

Language : English

Text
Language : English

Language : Arabic

Language : Danish

Language : German

Language : Spanish

Language : Spanish

Language : Finnish

Title : Filipino

Language : French

Language : Hebrew

Language : Hindi

Language : Indonesian

Language : Italian

Language : Japanese

Language : Korean

Title : Malay

Language : Norwegian

Language : Dutch

Language : Polish

Language : Portuguese

Language : Portuguese

Language : Russian

Language : Swedish

Language : Tamil

Language : Telugu

Language : Thai

Language : Turkish

Language : Chinese

Language : Chinese

Default : No

Forced : No

Coming 2 America (2021) 2160pDownload Torrent Magnet

#Coming #America #2160p