Coluche: l’histoire d’un mec Full Torrent Magnet Download

Download Torrent Coluche: l’histoire d’un mec Movie Full in HD Result. Movie Coluche: l’histoire d’un mec Torrent Download full. Movie Coluche: l’histoire d’un mec torrent Magnet Download Full. Coluche: l’histoire d’un mec Full Movie Torrent Download And Magnet Download For your PC And Mobiles. Latest Movie Coluche: l’histoire d’un mec Download Link In Bottom.

Torrent And Magnet Links Below

In this torrent: 1) Coluche: l’histoire d’un mec + 2) extra docu of Coluche

IMDB

Code:


General

Complete name : 720p – Mort de Coluche son maquilleur sort du silence après 31 ans.webm

Format : WebM

Format version : Version 4

File size : 48.2 MiB

Duration : 12 min 10 s

Overall bit rate : 553 kb/s

Writing application : Lavf58.29.100

Writing library : Lavf58.29.100

Video

ID : 1

Format : VP9

Codec ID : V_VP9

Duration : 12 min 10 s

Width : 1 280 pixels

Height : 712 pixels

Display aspect ratio : 16:9

Frame rate mode : Constant

Frame rate : 25.000 FPS

Color space : YUV

Language : English

Default : Yes

Forced : No

Color range : Limited

Color primaries : BT.709

Transfer characteristics : BT.709

Matrix coefficients : BT.709

Audio

ID : 2

Format : Opus

Codec ID : A_OPUS

Duration : 12 min 10 s

Channel(s) : 2 channels

Channel layout : L R

Sampling rate : 48.0 kHz

Bit depth : 32 bits

Compression mode : Lossy

Language : English

Default : Yes

Forced : No

General

Complete name : Coluche.l’histoire.d’un.mec.(2008).DVDrip.1080p.AAC.[Borsalino].DE.srt

Format : SubRip

File size : 113 KiB

Text

Format : SubRip

Compression mode : Lossless

General

Complete name : Coluche.l’histoire.d’un.mec.(2008).DVDrip.1080p.AAC.[Borsalino].EN.srt

Format : SubRip

File size : 113 KiB

Text

Format : SubRip

Compression mode : Lossless

General

Complete name : Coluche.l’histoire.d’un.mec.(2008).DVDrip.1080p.AAC.[Borsalino].FR.srt

Format : SubRip

File size : 123 KiB

Text

Format : SubRip

Compression mode : Lossless

General

Complete name : Coluche.l’histoire.d’un.mec.(2008).DVDrip.1080p.AAC.[Borsalino].NL.srt

Format : SubRip

File size : 100 KiB

Text

Format : SubRip

Compression mode : Lossless

General

Complete name : Coluche.l’histoire.d’un.mec.(2008).DVDrip.1080p.AAC.[Borsalino].mkv

Format : Matroska

Format version : Version 4

File size : 5.59 GiB

Duration : 1 h 38 min

Overall bit rate : 8 151 kb/s

Movie name : Coluche.l’histoire.d’un.mec.(2008).DVDrip.1080p.AAC.[Borsalino]
Writing application : mkvmerge v56.1.0 (‘My Friend’) 64-bit

Writing library : libebml v1.4.2 + libmatroska v1.6.4

Video

ID : 1

Format : AVC

Format/Info : Advanced Video Codec

Format profile : [email protected]
Format settings : CABAC / 2 Ref Frames

Format settings, CABAC : Yes

Format settings, Reference frames : 2 frames

Format settings, GOP : M=3, N=25

Codec ID : V_MPEG4/ISO/AVC

Duration : 1 h 38 min

Bit rate : 8 020 kb/s

Width : 1 920 pixels

Height : 1 080 pixels

Display aspect ratio : 16:9

Frame rate mode : Constant

Frame rate : 30.000 FPS

Color space : YUV

Chroma subsampling : 4:2:0

Bit depth : 8 bits

Scan type : Progressive

Bits/(Pixel*Frame) : 0.129

Stream size : 5.50 GiB (98%)

Title : French

Language : French

Default : Yes

Forced : No

Audio

ID : 2

Format : AAC LC

Format/Info : Advanced Audio Codec Low Complexity

Codec ID : A_AAC-2

Duration : 1 h 38 min

Bit rate : 128 kb/s

Channel(s) : 2 channels

Channel layout : L R

Sampling rate : 44.1 kHz

Frame rate : 43.066 FPS (1024 SPF)

Compression mode : Lossy

Delay relative to video : -67 ms

Stream size : 90.0 MiB (2%)

Title : French

Language : French

Default : Yes

Forced : No

Spoken language

Subtitles (srt files)










Coluche: l’histoire d’un mec Download Torrent Magnet

#Coluche #lhistoire #dun #mec