Cocoon 2020 1080p BLURAY REMU Full Torrent Magnet Download

Download Torrent Cocoon 2020 1080p BLURAY REMU Movie Full in HD Result. Movie Cocoon 2020 1080p BLURAY REMU Torrent Download full. Movie Cocoon 2020 1080p BLURAY REMU torrent Magnet Download Full. Cocoon 2020 1080p BLURAY REMU Full Movie Torrent Download And Magnet Download For your PC And Mobiles. Latest Movie Cocoon 2020 1080p BLURAY REMU Download Link In Bottom.

Torrent And Magnet Links Below

Cocoon 2020 1080p BLURAY REMUX DUAL AVC DTS-HD M.A. 4.1 – iCMAL [TGx]

Parents Guide

Jump to: Certification Sex & Nudity (0) Violence & Gore (0) Profanity (0) Alcohol, Drugs & Smoking (0) Frightening & Intense Scenes (0)

Certification

Certification

Canada:14A (Alberta) Germany:12 (bw) Singapore:R21 United Kingdom:15

Berlin-Kreuzberg is Nora’s microcosm. Nora, the silent observer, is always tagging along: At parties, at school, at the pool, on rooftops and in apartments. Nora drifts around the

Director: Leonie Krippendorff

Writer: Leonie Krippendorff

Stars: Lena Urzendowsky, Jella Haase, Lena Klenke

Storyline

Berlin-Kreuzberg is Nora’s microcosm. Nora, the silent observer, is always tagging along: At parties, at school, at the pool, on rooftops and in apartments. Nora drifts around the monotonous housing blocks with her big sister and her friends, witnessing events that seem to cross-fade in the summer light. Girls who want to be slim and pretty, boys who say dumb things to provoke or because they are in love. Ruthless smartphone cameras and fragile teenagers. But Nora has her own way of looking at the world, and when she meets Romy, she realizes why. There is music in the air, Nora’s body is changing, and caterpillars are spinning their cocoons. Realistic and taking on the protagonist’s perspective, this film captures a summer of change.

DownloadsCocoon 2020 1080p BLURAY REMUX DUAL AVC DTS-HD M.A. 4.1 – iCMAL [TGx]Cocoon 2020 1080p BLURAY REMUX DUAL AVC DTS-HD M.A. 4.1 – iCMAL [TGx].mkv

Format : Matroska

Format version : Version 4

File size : 20.4 GiB

Duration : 1 h 35 min

Overall bit rate mode : Variable

Overall bit rate : 30.7 Mb/s

Movie name : Cocoon 2020 1080p BLURAY REMUX DUAL AVC DTS-HD M.A. 4.1 – iCMAL [TGx]
Encoded date : UTC 2021-01-31 16:53:18

Writing application : mkvmerge v10.0.0 (‘To Drown In You’) 64bit

Writing library : libebml v1.3.4 + libmatroska v1.4.5

Video

ID : 1

Format : AVC

Format/Info : Advanced Video Codec

Format profile : [email protected]
Format settings : CABAC / 4 Ref Frames

Format settings, CABAC : Yes

Format settings, Reference frames : 4 frames

Format settings, GOP : M=3, N=24

Codec ID : V_MPEG4/ISO/AVC

Duration : 1 h 35 min

Bit rate mode : Constant

Bit rate : 28.0 Mb/s

Width : 1 920 pixels

Height : 1 080 pixels

Display aspect ratio : 16:9

Frame rate mode : Constant

Frame rate : 24.000 FPS

Standard : NTSC

Color space : YUV

Chroma subsampling : 4:2:0

Bit depth : 8 bits

Scan type : Progressive

Bits/(Pixel*Frame) : 0.563

Stream size : 18.1 GiB (88%)

Title : REMUX BY_iCMAL

Default : Yes

Forced : No

Color range : Limited

Color primaries : BT.709

Transfer characteristics : BT.709

Matrix coefficients : BT.709

Audio #1

ID : 2

Format : DTS XLL

Format/Info : Digital Theater Systems

Commercial name : DTS-HD Master Audio

Codec ID : A_DTS

Duration : 1 h 35 min

Bit rate mode : Variable

Bit rate : 2 002 kb/s

Channel(s) : 6 channels

Channel layout : C L R Ls Rs LFE

Sampling rate : 48.0 kHz

Frame rate : 93.750 FPS (512 SPF)

Bit depth : 16 bits

Compression mode : Lossless

Stream size : 1.33 GiB (7%)

Title : REMUX BY_iCMAL

Language : German

Default : Yes

Forced : No

Audio #2

ID : 3

Format : PCM

Format settings : Little / Signed

Codec ID : A_PCM/INT/LIT

Duration : 1 h 35 min

Bit rate mode : Constant

Bit rate : 1 536 kb/s

Channel(s) : 2 channels

Sampling rate : 48.0 kHz

Frame rate : 200.000 FPS (240 SPF)

Bit depth : 16 bits

Stream size : 1.02 GiB (5%)

Title : REMUX BY_iCMAL

Language : English

Default : No

Forced : No

Text #1

ID : 4

Format : PGS

Muxing mode : zlib

Codec ID : S_HDMV/PGS

Codec ID/Info : Picture based subtitle format used on BDs/HD-DVDs

Duration : 1 h 31 min

Bit rate : 7 492 b/s

Count of elements : 1506

Stream size : 4.91 MiB (0%)

Title : REMUX BY_iCMAL

Language : German

Default : Yes

Forced : No

Text #2

ID : 5

Format : PGS

Muxing mode : zlib

Codec ID : S_HDMV/PGS

Codec ID/Info : Picture based subtitle format used on BDs/HD-DVDs

Duration : 1 h 34 min

Bit rate : 11.4 kb/s

Count of elements : 2062

Stream size : 7.71 MiB (0%)

Title : REMUX BY_iCMAL

Language : English

Default : No

Forced : No


























Cocoon 2020 1080p BLURAY REMUDownload Torrent Magnet

#Cocoon #1080p #BLURAY #REMU