Clownface.2020.1080p.WEB-DL.D Full Torrent Magnet Download

Download Torrent Clownface.2020.1080p.WEB-DL.D Movie Full in HD Result. Movie Clownface.2020.1080p.WEB-DL.D Torrent Download full. Movie Clownface.2020.1080p.WEB-DL.D torrent Magnet Download Full. Clownface.2020.1080p.WEB-DL.D Full Movie Torrent Download And Magnet Download For your PC And Mobiles. Latest Movie Clownface.2020.1080p.WEB-DL.D Download Link In Bottom.

Torrent And Magnet Links Below

Quote:

*****************************************************************

*******************SCREENSHOTS(Click to enlarge)*******************

*******************************MEDIAINFO****************************

18+.Clownface.2020.1080p.WEB-DL.DD2.0.H.264.LLG.mp4

Format : MPEG-4

Format profile : Base Media

Codec ID : isom (isom/iso2/avc1/mp41)

File size : 1.43 GiB

Duration : 1 h 32 min

Overall bit rate mode : Variable

Overall bit rate : 2 205 kb/s

Writing application : Lavf57.83.100

Video

ID : 1

Format : AVC

Format/Info : Advanced Video Codec

Format profile : [email protected]
Format settings : CABAC / 1 Ref Frames

Format settings, CABAC : Yes

Format settings, Reference frames : 1 frame

Codec ID : avc1

Codec ID/Info : Advanced Video Coding

Duration : 1 h 32 min

Bit rate mode : Variable

Bit rate : 2 010 kb/s

Maximum bit rate : 6 000 kb/s

Width : 1 920 pixels

Height : 796 pixels

Display aspect ratio : 2.40:1

Frame rate mode : Constant

Frame rate : 25.000 FPS

Color space : YUV

Chroma subsampling : 4:2:0

Bit depth : 8 bits

Scan type : Progressive

Bits/(Pixel*Frame) : 0.053

Stream size : 1.30 GiB (91%)

Language : English

Menus : 3

Codec configuration box : avcC

Audio

ID : 2

Format : AC-3

Format/Info : Audio Coding 3

Commercial name : Dolby Digital

Codec ID : ac-3

Duration : 1 h 32 min

Bit rate mode : Constant

Bit rate : 192 kb/s

Channel(s) : 2 channels

Channel layout : L R

Sampling rate : 48.0 kHz

Frame rate : 31.250 FPS (1536 SPF)

Compression mode : Lossy

Stream size : 127 MiB (9%)

Service kind : Complete Main

Default : Yes

********************************************************

Clownface.2020.1080p.WEB-DL.DDownload Torrent Magnet

#Clownface20201080pWEBDLD