Cloclo (2012) BluRay 1080p AA Full Torrent Magnet Download

Download Torrent Cloclo (2012) BluRay 1080p AA Movie Full in HD Result. Movie Cloclo (2012) BluRay 1080p AA Torrent Download full. Movie Cloclo (2012) BluRay 1080p AA torrent Magnet Download Full. Cloclo (2012) BluRay 1080p AA Full Movie Torrent Download And Magnet Download For your PC And Mobiles. Latest Movie Cloclo (2012) BluRay 1080p AA Download Link In Bottom.

Torrent And Magnet Links Below

IMDB

Code:


General

Complete name : Cloclo.(2012).BluRay.1080p.AAC.[Borsalino].EL.srt

Format : SubRip

File size : 118 KiB

Text

Format : SubRip

Compression mode : Lossless

General

Complete name : Cloclo.(2012).BluRay.1080p.AAC.[Borsalino].EN.srt

Format : SubRip

File size : 111 KiB

Text

Format : SubRip

Compression mode : Lossless

General

Complete name : Cloclo.(2012).BluRay.1080p.AAC.[Borsalino].ES.srt

Format : SubRip

File size : 117 KiB

Text

Format : SubRip

Compression mode : Lossless

General

Complete name : Cloclo.(2012).BluRay.1080p.AAC.[Borsalino].NL.srt

Format : SubRip

File size : 96.3 KiB

Text

Format : SubRip

Compression mode : Lossless

General

Complete name : Cloclo.(2012).BluRay.1080p.AAC.[Borsalino].RO.srt

Format : SubRip

File size : 111 KiB

Text

Format : SubRip

Compression mode : Lossless

General

Complete name : Cloclo.(2012).BluRay.1080p.AAC.[Borsalino].RU.srt

Format : SubRip

File size : 130 KiB

Text

Format : SubRip

Compression mode : Lossless

General

Complete name : Cloclo.(2012).BluRay.1080p.AAC.[Borsalino].mkv

Format : Matroska

Format version : Version 4

File size : 2.95 GiB

Duration : 2 h 28 min

Overall bit rate : 2 841 kb/s

Movie name : Cloclo.(2012).BluRay.1080p.AAC.[Borsalino]
Writing application : mkvmerge v56.1.0 (‘My Friend’) 64-bit

Writing library : libebml v1.4.2 + libmatroska v1.6.4

Video

ID : 1

Format : AVC

Format/Info : Advanced Video Codec

Format profile : [email protected]
Format settings : CABAC / 3 Ref Frames

Format settings, CABAC : Yes

Format settings, Reference frames : 3 frames

Codec ID : V_MPEG4/ISO/AVC

Duration : 2 h 28 min

Bit rate : 2 636 kb/s

Width : 1 920 pixels

Height : 816 pixels

Display aspect ratio : 2.35:1

Frame rate mode : Constant

Frame rate : 24.000 FPS

Color space : YUV

Chroma subsampling : 4:2:0

Bit depth : 8 bits

Scan type : Progressive

Bits/(Pixel*Frame) : 0.070

Stream size : 2.68 GiB (91%)

Title : French

Writing library : x264 core 142 r2455 021c0dc

Encoding settings : cabac=1 / ref=1 / deblock=1:2:2 / analyse=0x3:0x113 / me=dia / subme=2 / psy=1 / psy_rd=1.00:0.00 / mixed_ref=0 / me_range=16 / chroma_me=1 / trellis=0 / 8x8dct=1 / cqm=0 / deadzone=21,11 / fast_pskip=1 / chroma_qp_offset=0 / threads=36 / lookahead_threads=6 / sliced_threads=0 / nr=0 / decimate=1 / interlaced=0 / bluray_compat=0 / constrained_intra=0 / bframes=3 / b_pyramid=1 / b_adapt=1 / b_bias=0 / direct=1 / weightb=1 / open_gop=0 / weightp=2 / keyint=60 / keyint_min=25 / scenecut=0 / intra_refresh=0 / rc_lookahead=40 / rc=abr / mbtree=1 / bitrate=2636 / ratetol=1.0 / qcomp=0.60 / qpmin=10 / qpmax=51 / qpstep=4 / ip_ratio=1.41 / aq=1:1.00

Language : French

Default : Yes

Forced : No

Audio

ID : 2

Format : AAC LC

Format/Info : Advanced Audio Codec Low Complexity

Codec ID : A_AAC-2

Duration : 2 h 28 min

Bit rate : 256 kb/s

Channel(s) : 2 channels

Channel layout : L R

Sampling rate : 44.1 kHz

Frame rate : 43.066 FPS (1024 SPF)

Compression mode : Lossy

Delay relative to video : -46 ms

Stream size : 272 MiB (9%)

Title : French

Language : French

Default : Yes

Forced : No

Spoken language

Subtitles (srt files)













Cloclo (2012) BluRay 1080p AADownload Torrent Magnet

#Cloclo #BluRay #1080p