Chino 1973 1080p BLURAY REMUX Full Torrent Magnet Download

Download Torrent Chino 1973 1080p BLURAY REMUX Movie Full in HD Result. Movie Chino 1973 1080p BLURAY REMUX Torrent Download full. Movie Chino 1973 1080p BLURAY REMUX torrent Magnet Download Full. Chino 1973 1080p BLURAY REMUX Full Movie Torrent Download And Magnet Download For your PC And Mobiles. Latest Movie Chino 1973 1080p BLURAY REMUX Download Link In Bottom.

Torrent And Magnet Links Below

Chino 1973 1080p BLURAY REMUX AVC DTS-HD M.A. 4.1. – iCMAL [TGx]

Parents Guide

Jump to: Certification Sex & Nudity (3) Violence & Gore (2) Profanity (1) Alcohol, Drugs & Smoking (1) Frightening & Intense Scenes (1) Spoilers (1)

ertification

Certification

Argentina:Atp Australia:M Canada:PG (Ontario) Canada:G (Quebec) Finland:K-16 Iceland:12 Italy:T Netherlands:12 Norway:12 (recommended rating) Norway:16 (1977, cinema rating) Portugal:M/12 United States:PG West Germany:16 (f)

A runaway teenager and a mixed-race horse breeder strike an unlikely friendship in the context of common hardships.

Directors: John Sturges, Duilio Coletti

Writers: Lee Hoffman (novel), Clair Huffaker (screenplay)

Stars: Charles Bronson, Jill Ireland, Marcel Bozzuffi

Storyline

Avoided by everyone for being half Native-American, the reclusive horse breeder, Chino Valdez, takes great pride in training his beautiful free-roaming mustangs. Then, unexpectedly, the young teenage runaway, Jamie Wagner, turns up at his door in search of food, shelter, and work, and just like that, an almost father/son relationship commences. However, the death of a young filly will be the harbinger of trouble, as the ruthless local cattle baron, Maral, is bent on eradicating the menace of the unpredictable man. Can Chino keep his horses, his land, and the woman he loves?

DownloadsChino 1973 1080p BLURAY REMUX AVC DTS-HD M.A. 4.1. – iCMAL [TGx]Chino 1973 1080p BLURAY REMUX AVC DTS-HD M.A. 4.1. – iCMAL.mkv

Format : Matroska

Format version : Version 4

File size : 16.8 GiB

Duration : 1 h 33 min

Overall bit rate mode : Variable

Overall bit rate : 25.9 Mb/s

Movie name : Chino 1973 1080p BLURAY REMUX AVC DTS-HD M.A. 4.1. – iCMAL
Encoded date : UTC 2021-01-31 21:16:59

Writing application : mkvmerge v10.0.0 (‘To Drown In You’) 64bit

Writing library : libebml v1.3.4 + libmatroska v1.4.5

Video

ID : 1

Format : AVC

Format/Info : Advanced Video Codec

Format profile : [email protected]
Format settings : CABAC / 3 Ref Frames

Format settings, CABAC : Yes

Format settings, Reference frames : 3 frames

Codec ID : V_MPEG4/ISO/AVC

Duration : 1 h 33 min

Bit rate mode : Variable

Bit rate : 25.0 Mb/s

Maximum bit rate : 38.0 Mb/s

Width : 1 920 pixels

Height : 1 080 pixels

Display aspect ratio : 16:9

Frame rate mode : Constant

Frame rate : 23.976 (24000/1001) FPS

Color space : YUV

Chroma subsampling : 4:2:0

Bit depth : 8 bits

Scan type : Progressive

Bits/(Pixel*Frame) : 0.503

Stream size : 16.3 GiB (97%)

Title : REMUX BY iCMAL

Writing library : x264 core 148 r2705 3f5ed56

Encoding settings : cabac=1 / ref=1 / deblock=0:-1:-1 / analyse=0x1:0 / me=dia / subme=2 / psy=1 / psy_rd=1.00:0.15 / mixed_ref=0 / me_range=16 / chroma_me=1 / trellis=0 / 8x8dct=0 / cqm=0 / deadzone=21,11 / fast_pskip=1 / chroma_qp_offset=0 / threads=34 / lookahead_threads=8 / sliced_threads=0 / slices=4 / nr=0 / decimate=1 / interlaced=0 / bluray_compat=1 / constrained_intra=0 / bframes=3 / b_pyramid=1 / b_adapt=2 / b_bias=0 / direct=3 / weightb=1 / open_gop=1 / weightp=1 / keyint=24 / keyint_min=1 / scenecut=40 / intra_refresh=0 / rc_lookahead=24 / rc=abr / mbtree=1 / bitrate=25000 / ratetol=1.0 / qcomp=0.60 / qpmin=0 / qpmax=69 / qpstep=4 / vbv_maxrate=38000 / vbv_bufsize=30000 / nal_hrd=vbr / filler=0 / ip_ratio=1.40 / aq=1:0.80

Default : Yes

Forced : No

Color range : Limited

Color primaries : BT.709

Transfer characteristics : BT.709

Matrix coefficients : BT.709

Audio

ID : 2

Format : DTS XLL

Format/Info : Digital Theater Systems

Commercial name : DTS-HD Master Audio

Codec ID : A_DTS

Duration : 1 h 33 min

Bit rate mode : Variable

Bit rate : 876 kb/s

Channel(s) : 1 channel

Channel layout : C

Sampling rate : 48.0 kHz

Frame rate : 93.750 FPS (512 SPF)

Bit depth : 16 bits

Compression mode : Lossless

Stream size : 584 MiB (3%)

Title : REMUX BY iCMAL

Language : English

Default : Yes

Forced : No

Chino 1973 1080p BLURAY REMUXDownload Torrent Magnet

#Chino #1080p #BLURAY #REMUX