Chinatown.1974.BRRip.XviD.B4N Full Torrent Magnet Download

Download Torrent Chinatown.1974.BRRip.XviD.B4N Movie Full in HD Result. Movie Chinatown.1974.BRRip.XviD.B4N Torrent Download full. Movie Chinatown.1974.BRRip.XviD.B4N torrent Magnet Download Full. Chinatown.1974.BRRip.XviD.B4N Full Movie Torrent Download And Magnet Download For your PC And Mobiles. Latest Movie Chinatown.1974.BRRip.XviD.B4N Download Link In Bottom.

Torrent And Magnet Links Below

Chinatown.1974.BRRip.XviD.B4ND1T69

Director: Roman Polanski

Writer: Robert Towne

Stars: Jack Nicholson, Faye Dunaway, John Huston

Plot/Story:

A private detective hired to expose an adulterer finds himself caught up in a web of deceit, corruption, and murder.

General

Complete name : Chinatown.1974.BRRip.XviD.B4ND1T69.avi

Format : AVI

Format/Info : Audio Video Interleave

File size : 1.14 GiB

Duration : 2 h 10 min

Overall bit rate : 1 248 kb/s

Subtitles : Yes…Included(HI)

Video

ID : 0

Format : MPEG-4 Visual

Format profile : Advanced [email protected]
Format settings, BVOP : 2

Format settings, QPel : No

Format settings, GMC : No warppoints

Format settings, Matrix : Default (H.263)

Codec ID : XVID

Codec ID/Hint : XviD

Duration : 2 h 10 min

Bit rate : 1 107 kb/s

Width : 720 pixels

Height : 304 pixels

Display aspect ratio : 2.35:1

Frame rate : 23.976 (24000/1001) FPS

Color space : YUV

Chroma subsampling : 4:2:0

Bit depth : 8 bits

Scan type : Progressive

Compression mode : Lossy

Bits/(Pixel*Frame) : 0.211

Stream size : 1.01 GiB (89%)

Writing library : XviD 64

Audio

ID : 1

Format : MPEG Audio

Format version : Version 1

Format profile : Layer 3

Codec ID : 55

Codec ID/Hint : MP3

Duration : 2 h 10 min

Bit rate mode : Constant

Bit rate : 128 kb/s

Channel(s) : 2 channels

Sampling rate : 48.0 kHz

Compression mode : Lossy

Stream size : 120 MiB (10%)

Alignment : Aligned on interleaves

Interleave, duration : 24 ms (0.58 video frame)

Screenshots:









Please Seed For As Long As Possible

Or At Least 1:1 Ratio…Thanks

Enjoy Peeps

Chinatown.1974.BRRip.XviD.B4NDownload Torrent Magnet

#Chinatown1974BRRipXviDB4N