Chicago.Fire.S09E02-05.1080p. Full Torrent Magnet Download

Download Torrent Chicago.Fire.S09E02-05.1080p. Movie Full in HD Result. Movie Chicago.Fire.S09E02-05.1080p. Torrent Download full. Movie Chicago.Fire.S09E02-05.1080p. torrent Magnet Download Full. Chicago.Fire.S09E02-05.1080p. Full Movie Torrent Download And Magnet Download For your PC And Mobiles. Latest Movie Chicago.Fire.S09E02-05.1080p. Download Link In Bottom.

Torrent And Magnet Links Below

DATI – TRAMA

Paese Stati Uniti d’America

Anno 2012 – in produzione

Formato serie TV

Genere drammatico, azione

Stagioni 9

Episodi 180

Durata 39-41 minuti (episodio)

Lingua originale inglese

Rapporto 16:9

La serie segue le vicende di alcuni pompieri e paramedici del Chicago Fire Department. In ogni episodio la squadra della caserma 51 viene messa alla prova da casi sempre diversi, ma grazie all’esperienza del comandante Boden e al gioco di squadra dei suoi due tenenti: Casey (poi capitano) e Severide riescono a risolvere ogni tipo di situazione, anche quelle più difficili.

IMMAGINI



REPORT

General

Unique ID : 141114538737539918783280783577534258810 (0x6A29ABEC4B2038FF13914A6EC54D5E7A)

Complete name : C:UsersAdministratorVideosChicago Fire S09Chicago.Fire.S09E01.Rattle.Second.City.1080p.WEBMux.ITA.ENG.x264-BlackBit.mkv

Format : Matroska

Format version : Version 4

File size : 3.02 GiB

Duration : 41 min 40 s

Overall bit rate : 10.4 Mb/s

Encoded date : UTC 2021-02-25 21:35:45

Writing application : mkvmerge v52.0.0 (‘Secret For The Mad’) 64-bit

Writing library : libebml v1.4.1 + libmatroska v1.6.2

Video

ID : 1

Format : AVC

Format/Info : Advanced Video Codec

Format profile : [email protected]
Format settings : CABAC / 4 Ref Frames

Format settings, CABAC : Yes

Format settings, Reference : 4 frames

Codec ID : V_MPEG4/ISO/AVC

Duration : 41 min 40 s

Bit rate mode : Constant

Bit rate : 10 000 kb/s

Width : 1 920 pixels

Height : 1 080 pixels

Display aspect ratio : 16:9

Frame rate mode : Constant

Frame rate : 23.976 (24000/1001) FPS

Color space : YUV

Chroma subsampling : 4:2:0

Bit depth : 8 bits

Scan type : Progressive

Bits/(Pixel*Frame) : 0.201

Stream size : 2.78 GiB (92%)

Default : Yes

Forced : Yes

Color range : Limited

Color primaries : BT.709

Transfer characteristics : BT.709

Matrix coefficients : BT.709

Audio #1

ID : 2

Format : AC-3

Format/Info : Audio Coding 3

Commercial name : Dolby Digital

Codec ID : A_AC3

Duration : 41 min 40 s

Bit rate mode : Constant

Bit rate : 192 kb/s

Channel(s) : 2 channels

Channel layout : L R

Sampling rate : 48.0 kHz

Frame rate : 31.250 FPS (1536 SPF)

Compression mode : Lossy

Stream size : 57.2 MiB (2%)

Language : Italian

Service kind : Complete Main

Default : Yes

Forced : Yes

Audio #2

ID : 3

Format : E-AC-3

Format/Info : Enhanced AC-3

Commercial name : Dolby Digital Plus

Codec ID : A_EAC3

Duration : 41 min 40 s

Bit rate mode : Constant

Bit rate : 640 kb/s

Channel(s) : 6 channels

Channel layout : L R C LFE Ls Rs

Sampling rate : 48.0 kHz

Frame rate : 31.250 FPS (1536 SPF)

Compression mode : Lossy

Stream size : 191 MiB (6%)

Language : English

Service kind : Complete Main

Default : No

Forced : No

Text

ID : 4

Format : UTF-8

Codec ID : S_TEXT/UTF8

Codec ID/Info : UTF-8 Plain Text

Duration : 41 min 32 s

Bit rate : 79 b/s

Count of elements : 872

Stream size : 24.2 KiB (0%)

Title : SDH

Language : English

Default : No

Forced : No

GOOD DOWNLOAD

Chicago.Fire.S09E02-05.1080p.Download Torrent Magnet

#ChicagoFireS09E02051080p