Chhichhore 2019 BluRay x264 7 Full Torrent Magnet Download

Download Torrent Chhichhore 2019 BluRay x264 7 Movie Full in HD Result. Movie Chhichhore 2019 BluRay x264 7 Torrent Download full. Movie Chhichhore 2019 BluRay x264 7 torrent Magnet Download Full. Chhichhore 2019 BluRay x264 7 Full Movie Torrent Download And Magnet Download For your PC And Mobiles. Latest Movie Chhichhore 2019 BluRay x264 7 Download Link In Bottom.

Torrent And Magnet Links Below

Chhichhore 2019 BluRay x264 720p Esub Hindi THE GOPI SAHI

Format : Matroska

Format version : Version 4

File size : 1.00 GiB

Duration : 2 h 23 min

Overall bit rate : 997 kb/s

Movie name : Chhichhore 2019 BluRay

Video

ID : 1

Format : AVC

Format/Info : Advanced Video Codec

Format profile : [email protected]
Format settings : CABAC / 5 Ref Frames

Format settings, CABAC : Yes

Format settings, Reference fra : 5 frames

Codec ID : V_MPEG4/ISO/AVC

Duration : 2 h 23 min

Bit rate : 899 kb/s

Width : 1 280 pixels

Height : 534 pixels

Display aspect ratio : 2.40:1

Frame rate mode : Constant

Frame rate : 24.000 FPS

Color space : YUV

Chroma subsampling : 4:2:0

Bit depth : 8 bits

Scan type : Progressive

Bits/(Pixel*Frame) : 0.055

Stream size : 923 MiB (90%)

Audio

ID : 2

Format : AAC LC

Format/Info : Advanced Audio Codec Low Complexity

Codec ID : A_AAC-2

Duration : 2 h 23 min

Bit rate : 96.0 kb/s

Channel(s) : 2 channels

Channel layout : L R

Sampling rate : 48.0 kHz

Frame rate : 46.875 FPS (1024 SPF)

Compression mode : Lossy

Delay relative to video : -21 ms

Stream size : 98.8 MiB (10%)

Language : Hindi

Text

Language : English

Menu

00:00:00.000 : :Chapter 1

00:04:49.958 : :Chapter 2

00:13:36.708 : :Chapter 3

00:23:49.333 : :Chapter 4

00:35:18.833 : :Chapter 5

00:47:36.667 : :Chapter 6

01:01:00.083 : :Chapter 7

01:14:41.125 : :Chapter 8

01:32:28.417 : :Chapter 9

01:45:56.917 : :Chapter 10

01:59:45.708 : :Chapter 11

02:17:01.792 : :Chapter 12

Chhichhore 2019 BluRay x264 7Download Torrent Magnet

#Chhichhore #BluRay #x264