Chhichhore (2019) 1080p BluRa Full Torrent Magnet Download

Download Torrent Chhichhore (2019) 1080p BluRa Movie Full in HD Result. Movie Chhichhore (2019) 1080p BluRa Torrent Download full. Movie Chhichhore (2019) 1080p BluRa torrent Magnet Download Full. Chhichhore (2019) 1080p BluRa Full Movie Torrent Download And Magnet Download For your PC And Mobiles. Latest Movie Chhichhore (2019) 1080p BluRa Download Link In Bottom.

Torrent And Magnet Links Below

Chhichhore (2019) 1080p BluRay x265 HEVC 10bit DD5.1 – SHURiKEN

Code:


General
Format : Matroska

Format version : Version 4

File size : 3.65 GiB

Duration : 2 h 23 min

Overall bit rate : 3 643 kb/s

Movie name : Chhichhore (2019) 1080p BluRay x265 HEVC 10bit DD5.1 – SHURiKEN

Encoded date : UTC 2021-01-29 10:05:28

Writing application : mkvmerge v52.0.0 (‘Secret For The Mad’) 64-bit

Writing library : libebml v1.4.1 + libmatroska v1.6.2

Video

ID : 1

Format : HEVC

Format/Info : High Efficiency Video Coding

Format profile : Main [email protected]@Main

Codec ID : V_MPEGH/ISO/HEVC

Duration : 2 h 23 min

Bit rate : 3 001 kb/s

Width : 1 920 pixels

Height : 800 pixels

Display aspect ratio : 2.40:1

Frame rate mode : Constant

Frame rate : 24.000 FPS

Color space : YUV

Chroma subsampling : 4:2:0

Bit depth : 10 bits

Bits/(Pixel*Frame) : 0.081

Stream size : 3.01 GiB (82%)

Title : SHURiKEN

Writing library : x265M – 3.4+28-419182243:[Windows][GCC 10.2.0][64 bit] 10bit

Encoding settings : cpuid=1111039 / frame-threads=2 / numa-pools=6 / wpp / no-pmode / no-pme / no-psnr / no-ssim / log-level=2 / input-csp=1 / input-res=1920×800 / interlace=0 / total-frames=206736 / level-idc=0 / high-tier=1 / uhd-bd=0 / ref=3 / no-allow-non-conformance / no-repeat-headers / annexb / no-aud / no-hrd / info / hash=0 / no-temporal-layers / open-gop / min-keyint=24 / keyint=250 / gop-lookahead=0 / bframes=4 / b-adapt=2 / b-pyramid / bframe-bias=0 / rc-lookahead=20 / lookahead-slices=5 / scenecut=40 / hist-scenecut=0 / radl=0 / no-splice / no-intra-refresh / ctu=64 / min-cu-size=8 / no-rect / no-amp / max-tu-size=32 / tu-inter-depth=1 / tu-intra-depth=1 / limit-tu=0 / rdoq-level=0 / dynamic-rd=0.00 / no-ssim-rd / signhide / no-tskip / nr-intra=0 / nr-inter=0 / no-constrained-intra / strong-intra-smoothing / max-merge=3 / limit-refs=1 / no-limit-modes / me=1 / subme=2 / merange=57 / temporal-mvp / no-frame-dup / no-hme / weightp / no-weightb / no-analyze-src-pics / deblock=0:0 / sao / no-sao-non-deblock / rd=3 / selective-sao=4 / early-skip / rskip / no-fast-intra / no-tskip-fast / no-cu-lossless / b-intra / no-splitrd-skip / rdpenalty=0 / psy-rd=0.00 / psy-rdoq=0.00 / no-rd-refine / no-lossless / cbqpoffs=0 / crqpoffs=0 / rc=abr / bitrate=3000 / qcomp=0.60 / qpstep=4 / stats-write=0 / stats-read=2 / cplxblur=20.0 / qblur=0.5 / ipratio=1.40 / pbratio=1.30 / aq-mode=2 / aq-strength=0.00 / cutree / zone-count=0 / no-strict-cbr / qg-size=32 / no-rc-grain / qpmax=69 / qpmin=0 / no-const-vbv / sar=0 / overscan=0 / videoformat=5 / range=0 / colorprim=2 / transfer=2 / colormatrix=2 / chromaloc=0 / display-window=0 / cll=0,0 / min-luma=0 / max-luma=1023 / log2-max-poc-lsb=8 / vui-timing-info / vui-hrd-info / slices=1 / no-opt-qp-pps / no-opt-ref-list-length-pps / no-multi-pass-opt-rps / scenecut-bias=0.05 / hist-threshold=0.03 / no-opt-cu-delta-qp / no-aq-motion / no-hdr10 / no-hdr10-opt / no-dhdr10-opt / no-idr-recovery-sei / analysis-reuse-level=0 / analysis-save-reuse-level=0 / analysis-load-reuse-level=0 / scale-factor=0 / refine-intra=0 / refine-inter=0 / refine-mv=1 / refine-ctu-distortion=0 / no-limit-sao / ctu-info=0 / no-lowpass-dct / refine-analysis-type=0 / copy-pic=1 / max-ausize-factor=1.0 / no-dynamic-refine / no-single-sei / no-hevc-aq / no-svt / no-field / qp-adaptation-range=1.00 / no-scenecut-aware-qpconformance-window-offsets / right=0 / bottom=0 / decoder-max-rate=0 / no-vbv-live-multi-pass

Default : Yes

Forced : No

Audio

ID : 2

Format : AC-3

Format/Info : Audio Coding 3

Commercial name : Dolby Digital

Codec ID : A_AC3

Duration : 2 h 23 min

Bit rate mode : Constant

Bit rate : 640 kb/s

Channel(s) : 6 channels

Channel layout : L R C LFE Ls Rs

Sampling rate : 48.0 kHz

Frame rate : 31.250 FPS (1536 SPF)

Compression mode : Lossy

Stream size : 657 MiB (18%)

Title : SHURiKEN

Service kind : Complete Main

Default : Yes

Forced : No

Menu

00:00:00.000 : :Chapter 01

00:04:49.958 : :Chapter 02

00:13:36.708 : :Chapter 03

00:23:49.333 : :Chapter 04

00:35:18.833 : :Chapter 05

00:47:36.667 : :Chapter 06

01:01:00.083 : :Chapter 07

01:14:41.125 : :Chapter 08

01:32:28.417 : :Chapter 09

01:45:56.917 : :Chapter 10

01:59:45.708 : :Chapter 11

02:17:01.625 : :Chapter 12

Quote:

Source: CHHICHHORE • 2019 • BD50 • Untouched JPN BluRay • Fine Films • DRs

EnjOyY the Quality…

ScreenShot’s

————————————————————–

Note:  
WHERE EVER YOU SHARE PLEASE GIVE PROPER CREDITS TO:Shuriken

Request to all users / downloader / leechers , Please always make small contribution 

with writing a decent comment & at least seeding back for few days so 

that we as team , can bring more & more ExCluSivE stuff for you guys.

HAPPY DOWNLOADING & We wish you Happy Holidays and a Fantastic New Year filled with adventures and happiness !

HAPPY NEW YEAR 2021

~~Cheers~~

Chhichhore (2019) 1080p BluRaDownload Torrent Magnet

#Chhichhore #1080p #BluRa