Chhichhore 2019 1080p 10bit B Full Torrent Magnet Download

Download Torrent Chhichhore 2019 1080p 10bit B Movie Full in HD Result. Movie Chhichhore 2019 1080p 10bit B Torrent Download full. Movie Chhichhore 2019 1080p 10bit B torrent Magnet Download Full. Chhichhore 2019 1080p 10bit B Full Movie Torrent Download And Magnet Download For your PC And Mobiles. Latest Movie Chhichhore 2019 1080p 10bit B Download Link In Bottom.

Torrent And Magnet Links Below

General

Unique ID                                : 144589852523845065637028449857341621789 (0x6CC6FE1F29EA188F65E0F6AD0836061D)

Complete name                            : F:EncodeChhichhore 2019 1080p 10bit BluRay Hindi DD5.1 x265 HEVC ESubs – MoviePirate – Telly.mkv

Format                                   : Matroska

Format version                           : Version 4

File size                                : 3.80 GiB

Duration                                 : 2 h 23 min

Overall bit rate                         : 3 789 kb/s

Movie name                               : Chhichhore (2019)

Encoded date                             : UTC 2021-02-10 10:42:00

Writing application                      : mkvmerge v39.0.0 (‘In The Waiting Line’) 64-bit

Writing library                          : libebml v1.3.9 + libmatroska v1.5.2

Video

ID                                       : 1

Format                                   : HEVC

Format/Info                              : High Efficiency Video Coding

Format profile                           : Main [email protected]@Main

Codec ID                                 : V_MPEGH/ISO/HEVC

Duration                                 : 2 h 23 min

Bit rate                                 : 3 130 kb/s

Width                                    : 1 920 pixels

Height                                   : 800 pixels

Display aspect ratio                     : 2.40:1

Frame rate mode                          : Constant

Frame rate                               : 24.000 FPS

Color space                              : YUV

Chroma subsampling                       : 4:2:0

Bit depth                                : 10 bits

Bits/(Pixel*Frame)                       : 0.085

Stream size                              : 3.14 GiB (83%)

Writing library                          : x265 3.2+9-971180b100f8:[Windows][GCC 9.2.0][64 bit] 10bit

Encoding settings                        : cpuid=1111039 / frame-threads=2 / numa-pools=4 / wpp / no-pmode / no-pme / no-psnr / no-ssim / log-level=2 / input-csp=1 / input-res=1920×800 / interlace=0 / total-frames=206736 / level-idc=0 / high-tier=1 / uhd-bd=0 / ref=2 / no-allow-non-conformance / no-repeat-headers / annexb / no-aud / no-hrd / info / hash=0 / no-temporal-layers / open-gop / min-keyint=24 / keyint=250 / gop-lookahead=0 / bframes=4 / b-adapt=0 / b-pyramid / bframe-bias=0 / rc-lookahead=15 / lookahead-slices=5 / scenecut=40 / radl=0 / no-splice / no-intra-refresh / ctu=64 / min-cu-size=8 / no-rect / no-amp / max-tu-size=32 / tu-inter-depth=1 / tu-intra-depth=1 / limit-tu=0 / rdoq-level=0 / dynamic-rd=0.00 / no-ssim-rd / signhide / no-tskip / nr-intra=0 / nr-inter=0 / no-constrained-intra / strong-intra-smoothing / max-merge=2 / limit-refs=3 / no-limit-modes / me=1 / subme=2 / merange=57 / temporal-mvp / no-frame-dup / no-hme / weightp / no-weightb / no-analyze-src-pics / deblock=0:0 / sao / no-sao-non-deblock / rd=2 / selective-sao=4 / early-skip / rskip / fast-intra / no-tskip-fast / no-cu-lossless / no-b-intra / no-splitrd-skip / rdpenalty=0 / psy-rd=2.00 / psy-rdoq=0.00 / no-rd-refine / no-lossless / cbqpoffs=0 / crqpoffs=0 / rc=abr / bitrate=3142 / qcomp=0.60 / qpstep=4 / stats-write=0 / stats-read=0 / ipratio=1.40 / pbratio=1.30 / aq-mode=2 / aq-strength=1.00 / cutree / zone-count=0 / no-strict-cbr / qg-size=32 / no-rc-grain / qpmax=69 / qpmin=0 / no-const-vbv / sar=0 / overscan=0 / videoformat=5 / range=0 / colorprim=2 / transfer=2 / colormatrix=2 / chromaloc=0 / display-window=0 / cll=0,0 / min-luma=0 / max-luma=1023 / log2-max-poc-lsb=8 / vui-timing-info / vui-hrd-info / slices=1 / no-opt-qp-pps / no-opt-ref-list-length-pps / no-multi-pass-opt-rps / scenecut-bias=0.05 / no-opt-cu-delta-qp / no-aq-motion / no-hdr / no-hdr-opt / no-dhdr10-opt / no-idr-recovery-sei / analysis-reuse-level=5 / scale-factor=0 / refine-intra=0 / refine-inter=0 / refine-mv=1 / refine-ctu-distortion=0 / no-limit-sao / ctu-info=0 / no-lowpass-dct / refine-analysis-type=0 / copy-pic=1 / max-ausize-factor=1.0 / no-dynamic-refine / no-single-sei / no-hevc-aq / no-svt / no-field / qp-adaptation-range=1.00

Default                                  : Yes

Forced                                   : No

Audio

ID                                       : 2

Format                                   : AC-3

Format/Info                              : Audio Coding 3

Commercial name                          : Dolby Digital

Codec ID                                 : A_AC3

Duration                                 : 2 h 23 min

Bit rate mode                            : Constant

Bit rate                                 : 640 kb/s

Channel(s)                               : 6 channels

Channel layout                           : L R C LFE Ls Rs

Sampling rate                            : 48.0 kHz

Frame rate                               : 31.250 FPS (1536 SPF)

Compression mode                         : Lossy

Stream size                              : 656 MiB (17%)

Title                                    : DTS-HD MA 5.1

Language                                 : Hindi

Service kind                             : Complete Main

Default                                  : No

Forced                                   : No

Text

ID                                       : 3

Format                                   : PGS

Muxing mode                              : zlib

Codec ID                                 : S_HDMV/PGS

Codec ID/Info                            : Picture based subtitle format used on BDs/HD-DVDs

Duration                                 : 2 h 18 min

Bit rate                                 : 41.7 kb/s

Count of elements                        : 4068

Stream size                              : 41.3 MiB (1%)

Title                                    : English

Language                                 : English

Default                                  : No

Forced                                   : No

Menu

00:00:00.000                             : en:Chapter 01

00:04:49.958                             : en:Chapter 02

00:13:36.708                             : en:Chapter 03

00:23:49.333                             : en:Chapter 04

00:35:18.833                             : en:Chapter 05

00:47:36.667                             : en:Chapter 06

01:01:00.083                             : en:Chapter 07

01:14:41.125                             : en:Chapter 08

01:32:28.417                             : en:Chapter 09

01:45:56.917                             : en:Chapter 10

01:59:45.708                             : en:Chapter 11

02:17:01.625                             : en:Chapter 12











Chhichhore 2019 1080p 10bit BDownload Torrent Magnet

#Chhichhore #1080p #10bit