Cherry.Innocenza.Perduta.2021 Full Torrent Magnet Download

Download Torrent Cherry.Innocenza.Perduta.2021 Movie Full in HD Result. Movie Cherry.Innocenza.Perduta.2021 Torrent Download full. Movie Cherry.Innocenza.Perduta.2021 torrent Magnet Download Full. Cherry.Innocenza.Perduta.2021 Full Movie Torrent Download And Magnet Download For your PC And Mobiles. Latest Movie Cherry.Innocenza.Perduta.2021 Download Link In Bottom.

Torrent And Magnet Links Below

DATI – TRAMA

USA, 2021

Genere: Drammatico

durata 141′

Regia di Anthony Russo, Joe Russo

Con Tom Holland, Ciara Bravo, Bill Skarsgård, Jack Reynor, Michael Gandolfini, Jeff Wahlberg, Forrest Goodluck, Anna Colwell.

Un medico dell’esercito, affetto da una grave forma di stress post traumatico, ricorre all’uso di oppioidi che possano placargli le sofferenze. Matura in tal modo una forte dipendenza che lo porterà a trasformarsi in rapinatore di banche per poter pagare il suo nuovo stile di vita.

IMMAGINI



REPORT

General

Unique ID : 217129255831897852912576410266843629945 (0xA35992D4E3645295742F0BE8A9DA4979)

Complete name : D:Cherry.Innocenza.Perduta.2021.iTA-ENG.WEBDL.2160p.x265-CYBER.mkv

Format : Matroska

Format version : Version 2

File size : 26.4 GiB

Duration : 2 h 21 min

Overall bit rate : 26.8 Mb/s

Movie name : “ENJOY”

Encoded date : UTC 2021-03-12 13:04:29

Writing application : mkvmerge v45.0.0 (‘Heaven in Pennies’) 64-bit

Writing library : libebml v1.3.10 + libmatroska v1.5.2

Video

ID : 1

Format : HEVC

Format/Info : High Efficiency Video Coding

Format profile : Main [email protected]@High

HDR format : SMPTE ST 2086, HDR10 compatible

Codec ID : V_MPEGH/ISO/HEVC

Duration : 2 h 21 min

Bit rate : 24.0 Mb/s

Width : 3 840 pixels

Height : 1 610 pixels

Display aspect ratio : 2.40:1

Frame rate mode : Constant

Frame rate : 23.976 (24000/1001) FPS

Color space : YUV

Chroma subsampling : 4:2:0 (Type 2)

Bit depth : 10 bits

Bits/(Pixel*Frame) : 0.162

Stream size : 23.7 GiB (89%)

Language : English

Default : Yes

Forced : No

Color range : Limited

Color primaries : BT.2020

Transfer characteristics : PQ

Matrix coefficients : BT.2020 non-constant

Mastering display color primaries : Display P3

Mastering display luminance : min: 0.0050 cd/m2, max: 1000 cd/m2

Maximum Content Light Level : 1395 cd/m2

Maximum Frame-Average Light Level : 414 cd/m2

Audio #1

ID : 2

Format : E-AC-3 JOC

Format/Info : Enhanced AC-3 with Joint Object Coding

Commercial name : Dolby Digital Plus with Dolby Atmos

Codec ID : A_EAC3

Duration : 2 h 21 min

Bit rate mode : Constant

Bit rate : 768 kb/s

Channel(s) : 6 channels

Channel layout : L R C LFE Ls Rs

Sampling rate : 48.0 kHz

Frame rate : 31.250 FPS (1536 SPF)

Compression mode : Lossy

Stream size : 775 MiB (3%)

Title : E-AC3

Language : Italian

Service kind : Complete Main

Default : Yes

Forced : No

Complexity index : 16

Number of dynamic objects : 15

Bed channel count : 1 channel

Bed channel configuration : LFE

Audio #2

ID : 3

Format : AC-3

Format/Info : Audio Coding 3

Commercial name : Dolby Digital

Codec ID : A_AC3

Duration : 2 h 21 min

Bit rate mode : Constant

Bit rate : 640 kb/s

Channel(s) : 6 channels

Channel layout : L R C LFE Ls Rs

Sampling rate : 48.0 kHz

Frame rate : 31.250 FPS (1536 SPF)

Compression mode : Lossy

Stream size : 646 MiB (2%)

Title : AC3

Language : Italian

Service kind : Complete Main

Default : No

Forced : No

Audio #3

ID : 4

Format : E-AC-3 JOC

Format/Info : Enhanced AC-3 with Joint Object Coding

Commercial name : Dolby Digital Plus with Dolby Atmos

Codec ID : A_EAC3

Duration : 2 h 21 min

Bit rate mode : Constant

Bit rate : 768 kb/s

Channel(s) : 6 channels

Channel layout : L R C LFE Ls Rs

Sampling rate : 48.0 kHz

Frame rate : 31.250 FPS (1536 SPF)

Compression mode : Lossy

Stream size : 775 MiB (3%)

Title : English

Language : English

Service kind : Complete Main

Default : No

Forced : No

Complexity index : 16

Number of dynamic objects : 15

Bed channel count : 1 channel

Bed channel configuration : LFE

Audio #4

ID : 5

Format : AC-3

Format/Info : Audio Coding 3

Commercial name : Dolby Digital

Codec ID : A_AC3

Duration : 2 h 21 min

Bit rate mode : Constant

Bit rate : 640 kb/s

Channel(s) : 6 channels

Channel layout : L R C LFE Ls Rs

Sampling rate : 48.0 kHz

Frame rate : 31.250 FPS (1536 SPF)

Compression mode : Lossy

Stream size : 646 MiB (2%)

Title : AC3

Language : English

Service kind : Complete Main

Default : No

Forced : No

Text #1

ID : 6

Format : UTF-8

Codec ID : S_TEXT/UTF8

Codec ID/Info : UTF-8 Plain Text

Duration : 2 h 11 min

Bit rate : 0 b/s

Count of elements : 27

Stream size : 564 Bytes (0%)

Title : Forced

Language : Italian

Default : No

Forced : Yes

Text #2

ID : 7

Format : UTF-8

Codec ID : S_TEXT/UTF8

Codec ID/Info : UTF-8 Plain Text

Duration : 2 h 20 min

Bit rate : 50 b/s

Count of elements : 1641

Stream size : 52.3 KiB (0%)

Title : Regular

Language : Italian

Default : No

Forced : No

Text #3

ID : 8

Format : UTF-8

Codec ID : S_TEXT/UTF8

Codec ID/Info : UTF-8 Plain Text

Duration : 2 h 20 min

Bit rate : 64 b/s

Count of elements : 1970

Stream size : 66.5 KiB (0%)

Title : English [SDH]
Language : English

Default : No

Forced : No

GOOD DOWNLOAD

Cherry.Innocenza.Perduta.2021Download Torrent Magnet

#CherryInnocenzaPerduta2021