Cherry.2021.HDRip.XviD.B4ND1T Full Torrent Magnet Download

Download Torrent Cherry.2021.HDRip.XviD.B4ND1T Movie Full in HD Result. Movie Cherry.2021.HDRip.XviD.B4ND1T Torrent Download full. Movie Cherry.2021.HDRip.XviD.B4ND1T torrent Magnet Download Full. Cherry.2021.HDRip.XviD.B4ND1T Full Movie Torrent Download And Magnet Download For your PC And Mobiles. Latest Movie Cherry.2021.HDRip.XviD.B4ND1T Download Link In Bottom.

Torrent And Magnet Links Below

Cherry.2021.HDRip.XviD.B4ND1T69

Directors: Anthony Russo, Joe Russo

Writers: Angela Russo-Otstot (screenplay by), Jessica Goldberg (screenplay by)

Stars: Tom Holland, Ciara Bravo, Jack Reynor

Plot/Story:

An Army medic suffering from post-traumatic stress disorder becomes a serial bank robber after an addiction to drugs puts him in debt.

General

Complete name : Cherry.2021.HDRip.XviD.B4ND1T69.avi

Format : AVI

Format/Info : Audio Video Interleave

File size : 1.14 GiB

Duration : 2 h 21 min

Overall bit rate : 1 156 kb/s

Subtitles : Yes…Included(HI)

Video

ID : 0

Format : MPEG-4 Visual

Format profile : Advanced [email protected]
Format settings, BVOP : 2

Format settings, QPel : No

Format settings, GMC : No warppoints

Format settings, Matrix : Default (H.263)

Codec ID : XVID

Codec ID/Hint : XviD

Duration : 2 h 21 min

Bit rate : 1 015 kb/s

Width : 720 pixels

Height : 304 pixels

Display aspect ratio : 2.35:1

Frame rate : 23.976 (24000/1001) FPS

Color space : YUV

Chroma subsampling : 4:2:0

Bit depth : 8 bits

Scan type : Progressive

Compression mode : Lossy

Bits/(Pixel*Frame) : 0.193

Stream size : 1.00 GiB (88%)

Writing library : XviD 64

Audio

ID : 1

Format : MPEG Audio

Format version : Version 1

Format profile : Layer 3

Codec ID : 55

Codec ID/Hint : MP3

Duration : 2 h 21 min

Bit rate mode : Constant

Bit rate : 128 kb/s

Channel(s) : 2 channels

Sampling rate : 48.0 kHz

Compression mode : Lossy

Stream size : 129 MiB (11%)

Alignment : Aligned on interleaves

Interleave, duration : 24 ms (0.58 video frame)

Screenshots:









Please Seed For As Long As Possible

Or At Least 1:1 Ratio…Thanks

Enjoy Peeps

Cherry.2021.HDRip.XviD.B4ND1TDownload Torrent Magnet

#Cherry2021HDRipXviDB4ND1T