Cherry.2021.1080p.ATVP.WEBRip Full Torrent Magnet Download

Download Torrent Cherry.2021.1080p.ATVP.WEBRip Movie Full in HD Result. Movie Cherry.2021.1080p.ATVP.WEBRip Torrent Download full. Movie Cherry.2021.1080p.ATVP.WEBRip torrent Magnet Download Full. Cherry.2021.1080p.ATVP.WEBRip Full Movie Torrent Download And Magnet Download For your PC And Mobiles. Latest Movie Cherry.2021.1080p.ATVP.WEBRip Download Link In Bottom.

Torrent And Magnet Links Below

Cherry.2021.1080p.ATVP.WEBRip.DDP5.1-English.Atmos.MSubs.HEVC~The.PunisheR.mkv

MediaInfos:
Unique ID : 281091700661959954125528941659020879569 (0xD3784AD6F2EC5461B32643D16FEC66D1)

Complete name : Cherry.2021.1080p.ATVP.WEBRip.DDP5.1-English.Atmos.MSubs.HEVC~The.PunisheR.mkv

Format : Matroska

Format version : Version 4

File size : 2.72 GiB

Duration : 2 h 21 min

Overall bit rate : 2 757 kb/s

Description : Encoded By – The.PunisheR

Encoded date : UTC 2021-03-13 16:37:15

Writing application : mkvmerge v55.0.0 (‘Waiting For Space’) 64-bit

Writing library : libebml v1.4.2 + libmatroska v1.6.4 / Lavf57.83.100

Video

ID : 1

Format : HEVC

Format/Info : High Efficiency Video Coding

Format profile : [email protected]@Main

Codec ID : V_MPEGH/ISO/HEVC

Duration : 2 h 21 min

Bit rate : 1 982 kb/s

Width : 1 920 pixels

Height : 806 pixels

Display aspect ratio : 2.40:1

Frame rate mode : Constant

Frame rate : 23.976 (24000/1001) FPS

Color space : YUV

Chroma subsampling : 4:2:0

Bit depth : 8 bits

Bits/(Pixel*Frame) : 0.053

Stream size : 1.95 GiB (72%)

Title : 1080p / 8bit / ATVP / WEBRip / HEVC ~ The.PunisheR

Language : English

Default : Yes

Forced : No

Color range : Limited

Color primaries : BT.709

Transfer characteristics : BT.709

Matrix coefficients : BT.709

Audio

ID : 2

Format : E-AC-3 JOC

Format/Info : Enhanced AC-3 with Joint Object Coding

Commercial name : Dolby Digital Plus with Dolby Atmos

Codec ID : A_EAC3

Duration : 2 h 21 min

Bit rate mode : Constant

Bit rate : 768 kb/s

Channel(s) : 6 channels

Channel layout : L R C LFE Ls Rs

Sampling rate : 48.0 kHz

Frame rate : 31.250 FPS (1536 SPF)

Compression mode : Lossy

Stream size : 775 MiB (28%)

Title : DD+ 5.1 / Atmos / 768kbps / 48kHz ~ The.PunisheR

Language : English

Service kind : Complete Main

Default : Yes

Forced : No

Complexity index : 16

Number of dynamic objects : 15

Bed channel count : 1 channel

Bed channel configuration : LFE

Text #1

ID : 3

Format : UTF-8

Codec ID : S_TEXT/UTF8

Codec ID/Info : UTF-8 Plain Text

Duration : 2 h 20 min

Bit rate : 126 b/s

Count of elements : 1646

Stream size : 131 KiB (0%)

Title : Hindi

Language : Hindi

Default : No

Forced : No

Text #2

ID : 4

Format : UTF-8

Codec ID : S_TEXT/UTF8

Codec ID/Info : UTF-8 Plain Text

Duration : 2 h 10 min

Bit rate : 57 b/s

Count of elements : 1618

Stream size : 55.1 KiB (0%)

Title : English

Language : English + MULTI
Default : No

Forced : No

Screenshots:




Quote:


Source: Cherry.2021.2160p.ATVP.WEB-DL.DDP5.1.Atmos.HEVC-CMRG.mkv

Cherry.2021.1080p.ATVP.WEBRipDownload Torrent Magnet

#Cherry20211080pATVPWEBRip