Che.Fine.Ha.Fatto.Sara.S02E01 Full Torrent Magnet Download

Download Torrent Che.Fine.Ha.Fatto.Sara.S02E01 Movie Full in HD Result. Movie Che.Fine.Ha.Fatto.Sara.S02E01 Torrent Download full. Movie Che.Fine.Ha.Fatto.Sara.S02E01 torrent Magnet Download Full. Che.Fine.Ha.Fatto.Sara.S02E01 Full Movie Torrent Download And Magnet Download For your PC And Mobiles. Latest Movie Che.Fine.Ha.Fatto.Sara.S02E01 Download Link In Bottom.

Torrent And Magnet Links Below

Title

Info Plot

Titolo originale: ¿Quién Mató a Sara?

Genere: Crimine, drammatico e mistero

Regista: José Ignacio Valenzuela

Attori: Ximena Lamadrid, Diana Mercado Armenta, Juan Carlos Remolina

Stagione: 2

Episodi: 10

Nazione: Messico

Álex rischia di tornare in carcere quando un corpo misterioso è ritrovato dietro casa sua. Nel frattempo vengono alla luce informazioni che lo portano a chiedersi chi fosse davvero sua sorella. Riuscirà a vendicarsi?

Images



Report

Code:

General

Unique ID : 81016093640303033514235872323401625188 (0x3CF321CF7707502221F6D027791B2E64)

Complete name : Che fine ha fatto Sara S02E01 La doppia vita di Sara DLMux 1080p E-AC3+AC3 ITA ENG SUBS.mkv

Format : Matroska

Format version : Version 4

File size : 1.71 GiB

Duration : 41 min 40 s

Overall bit rate : 5 864 kb/s

Encoded date : UTC 2021-05-19 08:08:22

Writing application : mkvmerge v52.0.0 (‘Secret For The Mad’) 64-bit

Writing library : libebml v1.4.1 + libmatroska v1.6.2

Video

ID : 1

Format : AVC

Format/Info : Advanced Video Codec

Format profile : [email protected]
Format settings : CABAC / 3 Ref Frames

Format settings, CABAC : Yes

Format settings, Reference frames : 3 frames

Codec ID : V_MPEG4/ISO/AVC

Duration : 41 min 40 s

Bit rate : 3 301 kb/s

Width : 1 920 pixels

Height : 1 080 pixels

Display aspect ratio : 16:9

Frame rate mode : Constant

Frame rate : 23.976 (24000/1001) FPS

Color space : YUV

Chroma subsampling : 4:2:0

Bit depth : 8 bits

Scan type : Progressive

Bits/(Pixel*Frame) : 0.066

Stream size : 984 MiB (56%)

Default : Yes

Forced : No

Audio #1

ID : 2

Format : AC-3

Format/Info : Audio Coding 3

Commercial name : Dolby Digital

Codec ID : A_AC3

Duration : 41 min 40 s

Bit rate mode : Constant

Bit rate : 640 kb/s

Channel(s) : 6 channels

Channel layout : L R C LFE Ls Rs

Sampling rate : 48.0 kHz

Frame rate : 31.250 FPS (1536 SPF)

Compression mode : Lossy

Delay relative to video : -83 ms

Stream size : 191 MiB (11%)

Title : AC3 5.1 @ DOLBY

Language : Italian

Service kind : Complete Main

Default : Yes

Forced : No

Audio #2

ID : 3

Format : E-AC-3

Format/Info : Enhanced AC-3

Commercial name : Dolby Digital Plus

Codec ID : A_EAC3

Duration : 41 min 40 s

Bit rate mode : Constant

Bit rate : 640 kb/s

Channel(s) : 6 channels

Channel layout : L R C LFE Ls Rs

Sampling rate : 48.0 kHz

Frame rate : 31.250 FPS (1536 SPF)

Compression mode : Lossy

Delay relative to video : -83 ms

Stream size : 191 MiB (11%)

Title : E-AC3 5.1 @ DOLBY

Language : English

Service kind : Complete Main

Default : No

Forced : No

Audio #3

ID : 4

Format : E-AC-3

Format/Info : Enhanced AC-3

Commercial name : Dolby Digital Plus

Codec ID : A_EAC3

Duration : 41 min 40 s

Bit rate mode : Constant

Bit rate : 640 kb/s

Channel(s) : 6 channels

Channel layout : L R C LFE Ls Rs

Sampling rate : 48.0 kHz

Frame rate : 31.250 FPS (1536 SPF)

Compression mode : Lossy

Delay relative to video : -83 ms

Stream size : 191 MiB (11%)

Title : E-AC3 5.1 @ DOLBY

Language : Italian

Service kind : Complete Main

Default : No

Forced : No

Audio #4

ID : 5

Format : E-AC-3

Format/Info : Enhanced AC-3

Commercial name : Dolby Digital Plus

Codec ID : A_EAC3

Duration : 41 min 40 s

Bit rate mode : Constant

Bit rate : 640 kb/s

Channel(s) : 6 channels

Channel layout : L R C LFE Ls Rs

Sampling rate : 48.0 kHz

Frame rate : 31.250 FPS (1536 SPF)

Compression mode : Lossy

Delay relative to video : -83 ms

Stream size : 191 MiB (11%)

Title : E-AC3 5.1 @ DOLBY

Language : Spanish

Service kind : Complete Main

Default : No

Forced : No

Text #1

ID : 6

Format : UTF-8

Codec ID : S_TEXT/UTF8

Codec ID/Info : UTF-8 Plain Text

Duration : 38 min 46 s

Bit rate : 0 b/s

Count of elements : 9

Stream size : 229 Bytes (0%)

Title : Forced

Language : Italian

Default : Yes

Forced : No

Text #2

ID : 7

Format : UTF-8

Codec ID : S_TEXT/UTF8

Codec ID/Info : UTF-8 Plain Text

Duration : 40 min 44 s

Bit rate : 51 b/s

Count of elements : 510

Stream size : 15.5 KiB (0%)

Language : Italian

Default : No

Forced : No

Text #3

ID : 8

Format : UTF-8

Codec ID : S_TEXT/UTF8

Codec ID/Info : UTF-8 Plain Text

Duration : 37 min 36 s

Bit rate : 57 b/s

Count of elements : 521

Stream size : 15.9 KiB (0%)

Language : English

Default : No

Forced : No

Text #4

ID : 9

Format : UTF-8

Codec ID : S_TEXT/UTF8

Codec ID/Info : UTF-8 Plain Text

Duration : 40 min 43 s

Bit rate : 63 b/s

Count of elements : 531

Stream size : 19.0 KiB (0%)

Language : Spanish

Default : No

Forced : No

Good Download

Che.Fine.Ha.Fatto.Sara.S02E01Download Torrent Magnet

#CheFineHaFattoSaraS02E01