Charlotte et son Jules (1960) Full Torrent Magnet Download

Download Torrent Charlotte et son Jules (1960) Movie Full in HD Result. Movie Charlotte et son Jules (1960) Torrent Download full. Movie Charlotte et son Jules (1960) torrent Magnet Download Full. Charlotte et son Jules (1960) Full Movie Torrent Download And Magnet Download For your PC And Mobiles. Latest Movie Charlotte et son Jules (1960) Download Link In Bottom.

Torrent And Magnet Links Below

IMDB

Code:


General

Complete name : Charlotte.et.son.Jules.(1960).DVDrip.Criterion.AC3.[Borsalino].DE.srt

Format : SubRip

File size : 17.0 KiB

Text

Format : SubRip

Compression mode : Lossless

General

Complete name : Charlotte.et.son.Jules.(1960).DVDrip.Criterion.AC3.[Borsalino].EN.srt

Format : SubRip

File size : 15.5 KiB

Text

Format : SubRip

Compression mode : Lossless

General

Complete name : Charlotte.et.son.Jules.(1960).DVDrip.Criterion.AC3.[Borsalino].ES.srt

Format : SubRip

File size : 16.1 KiB

Text

Format : SubRip

Compression mode : Lossless

General

Complete name : Charlotte.et.son.Jules.(1960).DVDrip.Criterion.AC3.[Borsalino].IT.srt

Format : SubRip

File size : 16.3 KiB

Text

Format : SubRip

Compression mode : Lossless

General

Complete name : Charlotte.et.son.Jules.(1960).DVDrip.Criterion.AC3.[Borsalino].mkv

Format : Matroska

Format version : Version 4

File size : 172 MiB

Duration : 12 min 42 s

Overall bit rate : 1 888 kb/s

Movie name : Charlotte.et.son.Jules.(1960).DVDrip.Criterion.AC3.[Borsalino]
Writing application : mkvmerge v56.1.0 (‘My Friend’) 64-bit

Writing library : libebml v1.4.2 + libmatroska v1.6.4

Video

ID : 1

Format : AVC

Format/Info : Advanced Video Codec

Format profile : [email protected]
Format settings : CABAC / 4 Ref Frames

Format settings, CABAC : Yes

Format settings, Reference frames : 4 frames

Codec ID : V_MPEG4/ISO/AVC

Duration : 12 min 42 s

Bit rate : 1 695 kb/s

Width : 720 pixels

Height : 480 pixels

Display aspect ratio : 4:3

Frame rate mode : Variable

Frame rate : 25.323 FPS

Color space : YUV

Chroma subsampling : 4:2:0

Bit depth : 8 bits

Scan type : Progressive

Bits/(Pixel*Frame) : 0.194

Stream size : 154 MiB (90%)

Title : French

Writing library : x264 core 110

Encoding settings : cabac=1 / ref=3 / deblock=1:0:0 / analyse=0x3:0x113 / me=hex / subme=7 / psy=1 / psy_rd=1,00:0,00 / mixed_ref=1 / me_range=16 / chroma_me=1 / trellis=1 / 8x8dct=1 / cqm=0 / deadzone=21,11 / fast_pskip=1 / chroma_qp_offset=-2 / threads=3 / sliced_threads=0 / nr=0 / decimate=1 / interlaced=0 / constrained_intra=0 / bframes=3 / b_pyramid=2 / b_adapt=2 / b_bias=0 / direct=1 / weightb=1 / open_gop=0 / weightp=2 / keyint=300 / keyint_min=29 / scenecut=40 / intra_refresh=0 / rc_lookahead=50 / rc=crf / mbtree=1 / crf=20,0 / qcomp=0,60 / qpmin=0 / qpmax=51 / qpstep=4 / ip_ratio=1,40 / aq=1:1,00

Language : French

Default : Yes

Forced : No

Color range : Limited

Color primaries : BT.601 NTSC

Transfer characteristics : BT.709

Matrix coefficients : BT.601

Audio

ID : 2

Format : AC-3

Format/Info : Audio Coding 3

Commercial name : Dolby Digital

Codec ID : A_AC3

Duration : 12 min 42 s

Bit rate mode : Constant

Bit rate : 192 kb/s

Channel(s) : 1 channel

Channel layout : C

Sampling rate : 48.0 kHz

Frame rate : 31.250 FPS (1536 SPF)

Compression mode : Lossy

Stream size : 17.5 MiB (10%)

Title : French

Language : French

Service kind : Complete Main

Default : Yes

Forced : No

Spoken language

Subtitles (srt files)









Charlotte et son Jules (1960)Download Torrent Magnet

#Charlotte #son #Jules