Charlatan.2020.SUBBED.WEB.AAC Full Torrent Magnet Download

Download Torrent Charlatan.2020.SUBBED.WEB.AAC Movie Full in HD Result. Movie Charlatan.2020.SUBBED.WEB.AAC Torrent Download full. Movie Charlatan.2020.SUBBED.WEB.AAC torrent Magnet Download Full. Charlatan.2020.SUBBED.WEB.AAC Full Movie Torrent Download And Magnet Download For your PC And Mobiles. Latest Movie Charlatan.2020.SUBBED.WEB.AAC Download Link In Bottom.

Torrent And Magnet Links Below

Release: Charlatan.2020.SUBBED.WEB.AAC2.0.x264-Bhanaa

IMDB: https://www.imdb.com/title/tt6028620

Subtitle: English (harcoded)

Plot: The breathtaking story of a man gifted with exceptional abilities set against the background of the events of the totalitarian fifties. Official submission of Czech Republic for the ‘Best International Feature Film’ category of the 93rd Academy Awards in 2021.

General

Complete name : Charlatan.2020.SUBBED.WEB.AAC2.0.x264-Bhanaa.mkv

Format : Matroska

Format version : Version 4

File size : 949 MiB

Duration : 1 h 57 min

Overall bit rate : 1 127 kb/s

Encoded date : UTC 2020-12-18 19:44:21

Writing application : mkvmerge v51.0.0 (‘I Wish’) 64-bit

Writing library : libebml v1.4.0 + libmatroska v1.6.2

Video

ID : 1

Format : AVC

Format/Info : Advanced Video Codec

Format profile : [email protected]
Format settings : CABAC / 1 Ref Frames

Format settings, CABAC : Yes

Format settings, Reference : 1 frame

Format settings, GOP : M=1, N=48

Codec ID : V_MPEG4/ISO/AVC

Duration : 1 h 57 min

Bit rate : 1 000 kb/s

Width : 1 024 pixels

Height : 576 pixels

Display aspect ratio : 16:9

Frame rate mode : Constant

Frame rate : 24.000 FPS

Color space : YUV

Chroma subsampling : 4:2:0

Bit depth : 8 bits

Scan type : Progressive

Bits/(Pixel*Frame) : 0.071

Stream size : 840 MiB (88%)

Writing library : x264 core 148

Encoding settings : cabac=1 / ref=1 / deblock=1:0:0 / analyse=0x1:0x1 / me=dia / subme=1 / psy=1 / psy_rd=1.00:0.00 / mixed_ref=0 / me_range=16 / chroma_me=1 / trellis=0 / 8x8dct=0 / cqm=0 / deadzone=21,11 / fast_pskip=1 / chroma_qp_offset=0 / threads=18 / lookahead_threads=3 / sliced_threads=0 / nr=0 / decimate=1 / interlaced=0 / bluray_compat=0 / constrained_intra=0 / bframes=0 / weightp=1 / keyint=48 / keyint_min=25 / scenecut=0 / intra_refresh=0 / rc_lookahead=0 / rc=abr / mbtree=0 / bitrate=1000 / ratetol=1.0 / qcomp=0.60 / qpmin=0 / qpmax=69 / qpstep=4 / vbv_maxrate=1500 / vbv_bufsize=3000 / nal_hrd=none / filler=0 / ip_ratio=1.40 / aq=1:1.00

Language : English

Default : Yes

Forced : No

Audio

ID : 2

Format : AAC LC

Format/Info : Advanced Audio Codec Low Complexity

Codec ID : A_AAC-2

Duration : 1 h 57 min

Bit rate : 128 kb/s

Channel(s) : 2 channels

Channel layout : L R

Sampling rate : 48.0 kHz

Frame rate : 46.875 FPS (1024 SPF)

Compression mode : Lossy

Stream size : 108 MiB (11%)

Language : Czech

Default : Yes

Forced : No

SCREENSHOTS:







Charlatan.2020.SUBBED.WEB.AACDownload Torrent Magnet

#Charlatan2020SUBBEDWEBAAC