Charlatan.2020.576p.DVDRip.x2 Full Torrent Magnet Download

Download Torrent Charlatan.2020.576p.DVDRip.x2 Movie Full in HD Result. Movie Charlatan.2020.576p.DVDRip.x2 Torrent Download full. Movie Charlatan.2020.576p.DVDRip.x2 torrent Magnet Download Full. Charlatan.2020.576p.DVDRip.x2 Full Movie Torrent Download And Magnet Download For your PC And Mobiles. Latest Movie Charlatan.2020.576p.DVDRip.x2 Download Link In Bottom.

Torrent And Magnet Links Below

Release: Charlatan.2020.576p.DVDRip.x264.AC3.HORiZON-ArtSubs

IMDB: https://www.imdb.com/title/tt6028620

Subtitle: English (soft)

Plot: The breathtaking story of a man gifted with exceptional abilities set against the background of the events of the totalitarian fifties. Official submission of Czech Republic for the ‘Best International Feature Film’ category of the 93rd Academy Awards in 2021.

General

Complete name : Charlatan.2020.576p.DVDRip.x264.AC3.HORiZON-ArtSubs.mkv

Format : Matroska

Format version : Version 4

File size : 2.17 GiB

Duration : 1 h 53 min

Overall bit rate : 2 750 kb/s

Encoded date : UTC 2021-01-22 11:21:53

Writing application : mkvmerge v50.0.0 (‘Awakenings’) 64-bit

Writing library : libebml v1.4.0 + libmatroska v1.6.2

Video

ID : 1

Format : AVC

Format/Info : Advanced Video Codec

Format profile : [email protected]
Format settings : CABAC / 4 Ref Frames

Format settings, CABAC : Yes

Format settings, Reference : 4 frames

Codec ID : V_MPEG4/ISO/AVC

Duration : 1 h 53 min

Bit rate : 2 300 kb/s

Width : 720 pixels

Height : 576 pixels

Display aspect ratio : 16:9

Frame rate mode : Constant

Frame rate : 25.000 FPS

Standard : PAL

Color space : YUV

Chroma subsampling : 4:2:0

Bit depth : 8 bits

Scan type : Progressive

Bits/(Pixel*Frame) : 0.222

Stream size : 1.82 GiB (84%)

Writing library : x264 core 157 r2935 545de2f

Encoding settings : cabac=1 / ref=4 / deblock=1:-2:-2 / analyse=0x3:0x133 / me=umh / subme=10 / psy=1 / psy_rd=1.00:0.25 / mixed_ref=1 / me_range=32 / chroma_me=1 / trellis=2 / 8x8dct=1 / cqm=0 / deadzone=6,6 / fast_pskip=1 / chroma_qp_offset=-4 / threads=6 / lookahead_threads=1 / sliced_threads=0 / nr=0 / decimate=0 / interlaced=0 / bluray_compat=0 / constrained_intra=0 / bframes=8 / b_pyramid=2 / b_adapt=2 / b_bias=0 / direct=3 / weightb=1 / open_gop=0 / weightp=2 / keyint=250 / keyint_min=25 / scenecut=40 / intra_refresh=0 / rc_lookahead=60 / rc=2pass / mbtree=1 / bitrate=2300 / ratetol=1.0 / qcomp=0.75 / qpmin=0 / qpmax=69 / qpstep=4 / cplxblur=20.0 / qblur=0.5 / vbv_maxrate=25000 / vbv_bufsize=78125 / nal_hrd=none / filler=0 / ip_ratio=1.10 / aq=3:1.20

Default : Yes

Forced : No

Color range : Limited

Color primaries : BT.601 PAL

Transfer characteristics : BT.709

Matrix coefficients : BT.601

Audio

ID : 2

Format : AC-3

Format/Info : Audio Coding 3

Commercial name : Dolby Digital

Codec ID : A_AC3

Duration : 1 h 53 min

Bit rate mode : Constant

Bit rate : 448 kb/s

Channel(s) : 6 channels

Channel layout : L R C LFE Ls Rs

Sampling rate : 48.0 kHz

Frame rate : 31.250 FPS (1536 SPF)

Compression mode : Lossy

Stream size : 362 MiB (16%)

Language : Czech

Service kind : Complete Main

Default : Yes

Forced : No

Text #1

ID : 3

Format : UTF-8

Codec ID : S_TEXT/UTF8

Codec ID/Info : UTF-8 Plain Text

Duration : 1 h 47 min

Bit rate : 41 b/s

Count of elements : 881

Stream size : 32.4 KiB (0%)

Language : English

Default : Yes

Forced : No

Text #2

ID : 4

Format : VobSub

Muxing mode : zlib

Codec ID : S_VOBSUB

Codec ID/Info : Picture based subtitle format used on DVDs

Duration : 1 h 47 min

Bit rate : 3 476 b/s

Count of elements : 881

Stream size : 2.67 MiB (0%)

Language : English

Default : No

Forced : No

SCREENSHOTS:







Charlatan.2020.576p.DVDRip.x2Download Torrent Magnet

#Charlatan2020576pDVDRipx2