Chaco.2020.1080p.WEB-DL.x264. Full Torrent Magnet Download

Download Torrent Chaco.2020.1080p.WEB-DL.x264. Movie Full in HD Result. Movie Chaco.2020.1080p.WEB-DL.x264. Torrent Download full. Movie Chaco.2020.1080p.WEB-DL.x264. torrent Magnet Download Full. Chaco.2020.1080p.WEB-DL.x264. Full Movie Torrent Download And Magnet Download For your PC And Mobiles. Latest Movie Chaco.2020.1080p.WEB-DL.x264. Download Link In Bottom.

Torrent And Magnet Links Below

Release: Chaco.2020.1080p.WEB-DL.x264.AAC.HORiZON-ArtSubs

IMDB: https://www.imdb.com/title/tt10201328

Subtitle: English (soft)

Plot: In 1934, Bolivia is at war with Paraguay. Liborio and Ticona and other Bolivian indigenous soldiers are lost in the hell of the Chaco, under the commandment of German Captain Kundt. They’re looking for the Paraguayan enemy that they haven’t seen for months, and that they will never find. They leave together in a search that will make them realize, progressively, the destiny they have been pushed into and the inevitable condition of a defeated troop. They’re walking like shadows, wandering forever in the middle of dust and silence. Official submission of Bolivia for the ‘Best International Feature Film’ category of the 93rd Academy Awards in 2021.

General

Complete name : Chaco.2020.1080p.WEB-DL.x264.AAC.HORiZON-ArtSubs.mkv

Format : Matroska

Format version : Version 4

File size : 2.17 GiB

Duration : 1 h 17 min

Overall bit rate : 4 011 kb/s

Encoded date : UTC 2021-04-19 11:33:38

Writing application : mkvmerge v56.0.0 (‘Strasbourg / St. Denis’) 64-bit

Writing library : libebml v1.4.2 + libmatroska v1.6.4

Video

ID : 1

Format : AVC

Format/Info : Advanced Video Codec

Format profile : [email protected]
Format settings : CABAC / 5 Ref Frames

Format settings, CABAC : Yes

Format settings, Reference : 5 frames

Codec ID : V_MPEG4/ISO/AVC

Duration : 1 h 17 min

Bit rate : 3 755 kb/s

Width : 1 920 pixels

Height : 1 080 pixels

Display aspect ratio : 16:9

Frame rate mode : Constant

Frame rate : 23.976 (24000/1001) FPS

Color space : YUV

Chroma subsampling : 4:2:0

Bit depth : 8 bits

Scan type : Progressive

Bits/(Pixel*Frame) : 0.076

Stream size : 2.03 GiB (94%)

Writing library : x264 core 161 r10 59c0609

Encoding settings : cabac=1 / ref=5 / deblock=1:0:0 / analyse=0x3:0x113 / me=hex / subme=8 / psy=1 / psy_rd=1.00:0.00 / mixed_ref=1 / me_range=16 / chroma_me=1 / trellis=2 / 8x8dct=1 / cqm=0 / deadzone=21,11 / fast_pskip=1 / chroma_qp_offset=-2 / threads=34 / lookahead_threads=5 / sliced_threads=0 / nr=0 / decimate=1 / interlaced=0 / bluray_compat=0 / stitchable=1 / constrained_intra=0 / bframes=3 / b_pyramid=2 / b_adapt=2 / b_bias=0 / direct=3 / weightb=1 / open_gop=0 / weightp=2 / keyint=infinite / keyint_min=23 / scenecut=40 / intra_refresh=0 / rc_lookahead=50 / rc=crf / mbtree=1 / crf=20.0 / qcomp=0.60 / qpmin=5 / qpmax=69 / qpstep=4 / vbv_maxrate=5500 / vbv_bufsize=15000 / crf_max=0.0 / nal_hrd=none / filler=0 / ip_ratio=1.40 / aq=1:1.00

Default : Yes

Forced : No

Color range : Limited

Color primaries : BT.709

Transfer characteristics : BT.709

Matrix coefficients : BT.709

Audio

ID : 2

Format : AAC LC

Format/Info : Advanced Audio Codec Low Complexity

Codec ID : A_AAC-2

Duration : 1 h 17 min

Bit rate : 253 kb/s

Channel(s) : 2 channels

Channel layout : L R

Sampling rate : 48.0 kHz

Frame rate : 46.875 FPS (1024 SPF)

Compression mode : Lossy

Stream size : 140 MiB (6%)

Language : Multiple languages

Default : Yes

Forced : No

Text

ID : 3

Format : UTF-8

Codec ID : S_TEXT/UTF8

Codec ID/Info : UTF-8 Plain Text

Duration : 1 h 11 min

Bit rate : 18 b/s

Count of elements : 366

Stream size : 9.63 KiB (0%)

Language : English

Default : Yes

Forced : No

SCREENSHOTS:





Chaco.2020.1080p.WEB-DL.x264.Download Torrent Magnet

#Chaco20201080pWEBDLx264