C’Era.Una.Volta.A.Hollywood.2 Full Torrent Magnet Download

Download Torrent C’Era.Una.Volta.A.Hollywood.2 Movie Full in HD Result. Movie C’Era.Una.Volta.A.Hollywood.2 Torrent Download full. Movie C’Era.Una.Volta.A.Hollywood.2 torrent Magnet Download Full. C’Era.Una.Volta.A.Hollywood.2 Full Movie Torrent Download And Magnet Download For your PC And Mobiles. Latest Movie C’Era.Una.Volta.A.Hollywood.2 Download Link In Bottom.

Torrent And Magnet Links Below

DATI – TRAMA

Data di uscita: 18 settembre 2019

Genere: Commedia, Drammatico

Anno: 2019

Regia: Quentin Tarantino

Attori: Leonardo DiCaprio, Brad Pitt, Margot Robbie, Al Pacino, Timothy Olyphant, Emile Hirsch, Zoe Bell, Dakota Fanning, Kurt Russell, Damian Lewis, Michael Madsen, Luke Perry, Julia Butters, Clifton Collins Jr., Scoot McNairy, Nicholas Hammond, Maurice Compte, Damon Herriman, Lew Temple, Margaret Qualley, Spencer Garrett, Austin Butler, Mike Moh, Rafal Zawierucha, Lena Dunham

Paese: Gran Bretagna, USA

Durata: 145 min

Distribuzione: Sony Pictures Italia/Warner Bros. Pictures Italia

Sceneggiatura: Quentin Tarantino

Fotografia: Robert Richardson

Montaggio: Fred Raskin

Produzione: Heyday Films, Sony Pictures Entertainment (SPE)

Rick Dalton, un attore televisivo, e Cliff Booth, la sua controfigura, intraprendono una personalissima odissea per affermarsi nell’industria cinematografica nella Los Angeles del 1969, segnata dagli omicidi di Charles Manson.

IMMAGINI



REPORT

General

Unique ID : 32636478982954935141972398890764725475 (0x188D8EA5A8D6AD49C876D7AE5677ECE3)

Complete name : E:C’Era.Una.Volta.A.Hollywood.2019.iTA-ENG.Bluray.2160p.HDR.x265-CYBER.mkv

Format : Matroska

Format version : Version 2

File size : 27.1 GiB

Duration : 2 h 41 min

Overall bit rate : 24.1 Mb/s

Movie name : *** C Y B E R * R O C K S ****

Encoded date : UTC 2019-12-20 14:04:29

Writing application : mkvmerge v33.1.0 (‘Primrose’) 64-bit

Writing library : libebml v1.3.7 + libmatroska v1.5.0

Video

ID : 1

Format : HEVC

Format/Info : High Efficiency Video Coding

Format profile : Main [email protected]@High

HDR format : SMPTE ST 2086, HDR10 compatible

Codec ID : V_MPEGH/ISO/HEVC

Duration : 2 h 41 min

Bit rate : 20.4 Mb/s

Width : 3 840 pixels

Height : 1 600 pixels

Display aspect ratio : 2.40:1

Frame rate mode : Constant

Frame rate : 23.976 (24000/1001) FPS

Color space : YUV

Chroma subsampling : 4:2:0 (Type 2)

Bit depth : 10 bits

Bits/(Pixel*Frame) : 0.138

Stream size : 23.0 GiB (85%)

Writing library : x265 3.2+15-04db2bfee5d6:[Windows][GCC 9.2.1][64 bit] 10bit

Encoding settings : cpuid=1176575 / frame-threads=5 / numa-pools=36 / wpp / no-pmode / no-pme / no-psnr / no-ssim / log-level=2 / input-csp=1 / input-res=3840×1600 / interlace=0 / total-frames=232320 / level-idc=51 / high-tier=1 / uhd-bd=0 / ref=4 / no-allow-non-conformance / repeat-headers / annexb / aud / hrd / info / hash=0 / no-temporal-layers / no-open-gop / min-keyint=1 / keyint=24 / gop-lookahead=0 / bframes=4 / b-adapt=2 / b-pyramid / bframe-bias=0 / rc-lookahead=25 / lookahead-slices=4 / scenecut=40 / radl=0 / no-splice / no-intra-refresh / ctu=64 / min-cu-size=8 / rect / no-amp / max-tu-size=32 / tu-inter-depth=1 / tu-intra-depth=1 / limit-tu=0 / rdoq-level=2 / dynamic-rd=0.00 / no-ssim-rd / signhide / no-tskip / nr-intra=0 / nr-inter=0 / no-constrained-intra / no-strong-intra-smoothing / max-merge=3 / limit-refs=3 / limit-modes / me=3 / subme=3 / merange=57 / temporal-mvp / no-frame-dup / no-hme / weightp / no-weightb / no-analyze-src-pics / deblock=-3:-3 / no-sao / no-sao-non-deblock / rd=4 / selective-sao=0 / no-early-skip / rskip / no-fast-intra / no-tskip-fast / no-cu-lossless / no-b-intra / no-splitrd-skip / rdpenalty=0 / psy-rd=2.00 / psy-rdoq=1.00 / no-rd-refine / no-lossless / cbqpoffs=0 / crqpoffs=0 / rc=crf / crf=17.0 / qcomp=0.60 / qpstep=4 / stats-write=0 / stats-read=0 / vbv-maxrate=160000 / vbv-bufsize=160000 / vbv-init=0.9 / crf-max=0.0 / crf-min=0.0 / ipratio=1.40 / pbratio=1.30 / aq-mode=1 / aq-strength=1.00 / cutree / zone-count=0 / no-strict-cbr / qg-size=32 / no-rc-grain / qpmax=69 / qpmin=0 / no-const-vbv / sar=1 / overscan=0 / videoformat=5 / range=0 / colorprim=9 / transfer=16 / colormatrix=9 / chromaloc=1 / chromaloc-top=2 / chromaloc-bottom=2 / display-window=0 / master-display=G(13250,34500)B(7500,3000)R(34000,16000)WP(15635,16450)L(10000000,1) / cll=385,213 / min-luma=0 / max-luma=1023 / log2-max-poc-lsb=8 / vui-timing-info / vui-hrd-info / slices=1 / no-opt-qp-pps / no-opt-ref-list-length-pps / no-multi-pass-opt-rps / scenecut-bias=0.05 / no-opt-cu-delta-qp / no-aq-motion / hdr / hdr-opt / no-dhdr10-opt / no-idr-recovery-sei / analysis-reuse-level=5 / scale-factor=0 / refine-intra=0 / refine-inter=0 / refine-mv=1 / refine-ctu-distortion=0 / no-limit-sao / ctu-info=0 / no-lowpass-dct / refine-analysis-type=0 / copy-pic=1 / max-ausize-factor=1.0 / no-dynamic-refine / no-single-sei / no-hevc-aq / no-svt / no-field / qp-adaptation-range=1.00 / no-scenecut-aware-qp

Language : English

Default : Yes

Forced : No

Color range : Limited

Color primaries : BT.2020

Transfer characteristics : PQ

Matrix coefficients : BT.2020 non-constant

Mastering display color primaries : Display P3

Mastering display luminance : min: 0.0001 cd/m2, max: 1000 cd/m2

Maximum Content Light Level : 385 cd/m2

Maximum Frame-Average Light Level : 213 cd/m2

Audio #1

ID : 2

Format : DTS

Format/Info : Digital Theater Systems

Codec ID : A_DTS

Duration : 2 h 41 min

Bit rate mode : Constant

Bit rate : 1 509 kb/s

Channel(s) : 6 channels

Channel layout : C L R Ls Rs LFE

Sampling rate : 48.0 kHz

Frame rate : 93.750 FPS (512 SPF)

Bit depth : 16 bits

Compression mode : Lossy

Stream size : 1.70 GiB (6%)

Language : Italian

Default : Yes

Forced : No

Audio #2

ID : 3

Format : AC-3

Format/Info : Audio Coding 3

Commercial name : Dolby Digital

Codec ID : A_AC3

Duration : 2 h 41 min

Bit rate mode : Constant

Bit rate : 640 kb/s

Channel(s) : 6 channels

Channel layout : L R C LFE Ls Rs

Sampling rate : 48.0 kHz

Frame rate : 31.250 FPS (1536 SPF)

Bit depth : 16 bits

Compression mode : Lossy

Stream size : 739 MiB (3%)

Language : Italian

Service kind : Complete Main

Default : No

Forced : No

Audio #3

ID : 4

Format : DTS

Format/Info : Digital Theater Systems

Codec ID : A_DTS

Duration : 2 h 41 min

Bit rate mode : Constant

Bit rate : 1 509 kb/s

Channel(s) : 6 channels

Channel layout : C L R Ls Rs LFE

Sampling rate : 48.0 kHz

Frame rate : 93.750 FPS (512 SPF)

Bit depth : 24 bits

Compression mode : Lossy

Stream size : 1.70 GiB (6%)

Language : English

Default : No

Forced : No

Text #1

ID : 5

Format : UTF-8

Codec ID : S_TEXT/UTF8

Codec ID/Info : UTF-8 Plain Text

Duration : 2 h 36 min

Bit rate : 0 b/s

Count of elements : 7

Stream size : 217 Bytes (0%)

Title : FORCED

Language : Italian

Default : Yes

Forced : No

Text #2

ID : 6

Format : UTF-8

Codec ID : S_TEXT/UTF8

Codec ID/Info : UTF-8 Plain Text

Duration : 2 h 40 min

Bit rate : 47 b/s

Count of elements : 1665

Stream size : 56.1 KiB (0%)

Title : REGOLARI

Language : Italian

Default : No

Forced : No

Text #3

ID : 7

Format : UTF-8

Codec ID : S_TEXT/UTF8

Codec ID/Info : UTF-8 Plain Text

Duration : 2 h 40 min

Bit rate : 60 b/s

Count of elements : 2058

Stream size : 71.6 KiB (0%)

Title : NON UDENTI

Language : English

Default : No

Forced : No

Menu

00:00:00.000 : en:Chapter 1

00:04:49.414 : en:Chapter 2

00:13:45.199 : en:Chapter 3

00:18:29.150 : en:Chapter 4

00:22:00.319 : en:Chapter 5

00:25:59.349 : en:Chapter 6

00:28:41.094 : en:Chapter 7

00:33:45.106 : en:Chapter 8

00:40:19.334 : en:Chapter 9

00:49:59.455 : en:Chapter 10

00:51:48.689 : en:Chapter 11

00:59:52.255 : en:Chapter 12

01:02:32.874 : en:Chapter 13

01:04:28.615 : en:Chapter 14

01:09:16.736 : en:Chapter 15

01:17:40.781 : en:Chapter 16

01:20:25.779 : en:Chapter 17

01:26:28.433 : en:Chapter 18

01:32:54.444 : en:Chapter 19

01:39:58.492 : en:Chapter 20

01:47:55.219 : en:Chapter 21

01:53:00.232 : en:Chapter 22

01:58:09.541 : en:Chapter 23

02:06:23.993 : en:Chapter 24

02:11:22.958 : en:Chapter 25

02:15:50.100 : en:Chapter 26

02:21:30.190 : en:Chapter 27

02:29:50.732 : en:Chapter 28

02:36:28.254 : en:Chapter 29

02:38:51.230 : en:Chapter 30

GOOD DOWNLOAD

C’Era.Una.Volta.A.Hollywood.2Download Torrent Magnet

#CEraUnaVoltaAHollywood2