Catwoman (2004) 1080p 10bit B Full Torrent Magnet Download

Download Torrent Catwoman (2004) 1080p 10bit B Movie Full in HD Result. Movie Catwoman (2004) 1080p 10bit B Torrent Download full. Movie Catwoman (2004) 1080p 10bit B torrent Magnet Download Full. Catwoman (2004) 1080p 10bit B Full Movie Torrent Download And Magnet Download For your PC And Mobiles. Latest Movie Catwoman (2004) 1080p 10bit B Download Link In Bottom.

Torrent And Magnet Links Below

CATch Her In IMAX…

Catwoman (2004) 1080p 10bit Bluray x265 HEVC [Org DD 2.0 Hindi + DD 5.1 English] ESub ~ TombDoc

Code:

Format : Matroska

Format version : Version 4

File size : 3.53 GiB

Duration : 1 h 44 min

Overall bit rate : 4 851 kb/s

Video

ID : 1

Format : HEVC

Format/Info : High Efficiency Video Coding

Format profile : Main [email protected]@Main

Codec ID : V_MPEGH/ISO/HEVC

Duration : 1 h 44 min

Bit rate : 3 975 kb/s

Width : 1 920 pixels

Height : 800 pixels

Display aspect ratio : 2.40:1

Frame rate mode : Constant

Frame rate : 23.976 (24000/1001) FPS

Color space : YUV

Chroma subsampling : 4:2:0

Bit depth : 10 bits

Bits/(Pixel*Frame) : 0.108

Stream size : 2.90 GiB (82%)

Writing library : x265 3.4+6-g73f96ff39:[Windows][GCC 11.0.0][64 bit] 10bit

Encoding settings : cpuid=1111039 / frame-threads=4 / numa-pools=24 / wpp / no-pmode / no-pme / no-psnr / no-ssim / log-level=2 / input-csp=1 / input-res=1920×800 / interlace=0 / total-frames=150042 / level-idc=0 / high-tier=1 / uhd-bd=0 / ref=5 / no-allow-non-conformance / no-repeat-headers / annexb / no-aud / no-hrd / info / hash=0 / no-temporal-layers / open-gop / min-keyint=23 / keyint=250 / gop-lookahead=0 / bframes=8 / b-adapt=2 / b-pyramid / bframe-bias=0 / rc-lookahead=100 / lookahead-slices=4 / scenecut=40 / hist-scenecut=0 / radl=0 / no-splice / no-intra-refresh / ctu=64 / min-cu-size=8 / rect / amp / max-tu-size=32 / tu-inter-depth=1 / tu-intra-depth=1 / limit-tu=0 / rdoq-level=2 / dynamic-rd=0.00 / ssim-rd / signhide / no-tskip / nr-intra=0 / nr-inter=0 / no-constrained-intra / strong-intra-smoothing / max-merge=5 / limit-refs=3 / limit-modes / me=3 / subme=5 / merange=57 / temporal-mvp / no-frame-dup / no-hme / weightp / no-weightb / no-analyze-src-pics / deblock=0:0 / sao / no-sao-non-deblock / rd=4 / selective-sao=4 / no-early-skip / no-rskip / no-fast-intra / no-tskip-fast / no-cu-lossless / no-b-intra / no-splitrd-skip / rdpenalty=0 / psy-rd=0.00 / psy-rdoq=2.00 / no-rd-refine / no-lossless / cbqpoffs=0 / crqpoffs=0 / rc=abr / bitrate=4000 / qcomp=0.60 / qpstep=4 / stats-write=0 / stats-read=2 / cplxblur=20.0 / qblur=0.5 / ipratio=1.40 / pbratio=1.30 / aq-mode=4 / aq-strength=1.00 / cutree / zone-count=0 / no-strict-cbr / qg-size=32 / rc-grain / qpmax=69 / qpmin=0 / no-const-vbv / sar=0 / overscan=0 / videoformat=5 / range=0 / colorprim=2 / transfer=2 / colormatrix=2 / chromaloc=0 / display-window=0 / cll=0,0 / min-luma=0 / max-luma=1023 / log2-max-poc-lsb=8 / vui-timing-info / vui-hrd-info / slices=1 / no-opt-qp-pps / no-opt-ref-list-length-pps / no-multi-pass-opt-rps / scenecut-bias=0.05 / hist-threshold=0.01 / no-opt-cu-delta-qp / aq-motion / no-hdr10 / no-hdr10-opt / no-dhdr10-opt / no-idr-recovery-sei / analysis-reuse-level=0 / analysis-save-reuse-level=0 / analysis-load-reuse-level=0 / scale-factor=0 / refine-intra=0 / refine-inter=0 / refine-mv=1 / refine-ctu-distortion=0 / no-limit-sao / ctu-info=0 / no-lowpass-dct / refine-analysis-type=0 / copy-pic=1 / max-ausize-factor=1.0 / no-dynamic-refine / no-single-sei / hevc-aq / no-svt / no-field / qp-adaptation-range=1.00 / no-scenecut-aware-qpconformance-window-offsets / right=0 / bottom=0 / decoder-max-rate=0

Default : Yes

Forced : No

Audio #1

ID : 2

Format : AC-3

Format/Info : Audio Coding 3

Commercial name : Dolby Digital
Codec ID : A_AC3

Duration : 1 h 44 min

Bit rate mode : Constant

Bit rate : 224 kb/s

Channel(s) : 2 channels

Channel layout : L R

Sampling rate : 48.0 kHz

Frame rate : 31.250 FPS (1536 SPF)

Compression mode : Lossy

Stream size : 167 MiB (5%)

Title : Org VCD DD 2.0 224Kbps ~ TombDoc

Language : Hindi

Service kind : Complete Main

Default : Yes

Forced : Yes

Audio #2

ID : 3

Format : E-AC-3

Format/Info : Enhanced AC-3

Commercial name : Dolby Digital Plus

Codec ID : A_EAC3

Duration : 1 h 44 min

Bit rate mode : Constant

Bit rate : 640 kb/s

Channel(s) : 6 channels

Channel layout : L R C LFE Ls Rs

Sampling rate : 48.0 kHz

Frame rate : 31.250 FPS (1536 SPF)

Compression mode : Lossy

Stream size : 477 MiB (13%)

Title : DD+ 5.1 English

Language : English

Service kind : Complete Main

Default : No

Forced : No

Text

ID : 4

Format : PGS

Muxing mode : zlib

Codec ID : S_HDMV/PGS

Codec ID/Info : Picture based subtitle format used on BDs/HD-DVDs

Duration : 1 h 40 min

Bit rate : 23.7 kb/s

Count of elements : 1826

Stream size : 17.0 MiB (0%)

Title : Eng BD-PGS-SDH

Language : English

Default : Yes

Forced : Yes

Menu

00:00:00.000 : en:Cat Lore Credits

00:03:35.966 : en:Impatient With Patience

00:07:58.895 : en:Rescue Missions

00:12:16.861 : en:Date With the Police

00:16:21.105 : en:Get Rid of Her

00:21:28.829 : en:Breath of Life

00:25:10.342 : en:New Tricks

00:27:39.825 : en:Midnight’s Owner

00:30:04.886 : en:Strange Behavior

00:33:24.961 : en:Shooting Hoops

00:36:21.971 : en:Animal Attraction

00:39:06.469 : en:Party Time

00:42:11.571 : en:Feline-ious Assault

00:46:38.462 : en:Accepting Catwoman

00:51:10.109 : en:Stalking Armando

00:55:15.729 : en:Cat Got Your Tongue?

00:58:00.352 : en:Similarities

01:00:31.378 : en:Impressive Heroics

01:03:56.166 : en:Between Us Girls

01:06:13.136 : en:Show Stopper

01:10:25.471 : en:Complicated

01:14:20.331 : en:Getting to Know Her

01:17:53.168 : en:Framed

01:20:49.219 : en:Same Girl

01:24:12.089 : en:Escaping on All Fours

01:26:34.940 : en:Delivery Failure

01:28:42.025 : en:Laurel’s Prey

01:31:49.587 : en:Bad Girls Showdown

01:37:03.568 : en:Freedom Is Power

01:38:34.575 : en:End Credits

Code:

Source: Catwoman 2004 BluRay 1080p TrueHD 5.1 VC-1 REMUX-FraMeSToR

Org Untouched VCD – Hindi Audio Synced By ReaperZa {Thanks}


EnjOyY the Quality…


Catwoman (2004) 1080p 10bit BDownload Torrent Magnet

#Catwoman #1080p #10bit