Casino.1995.UHD.BluRay.HDR.21 Full Torrent Magnet Download

Download Torrent Casino.1995.UHD.BluRay.HDR.21 Movie Full in HD Result. Movie Casino.1995.UHD.BluRay.HDR.21 Torrent Download full. Movie Casino.1995.UHD.BluRay.HDR.21 torrent Magnet Download Full. Casino.1995.UHD.BluRay.HDR.21 Full Movie Torrent Download And Magnet Download For your PC And Mobiles. Latest Movie Casino.1995.UHD.BluRay.HDR.21 Download Link In Bottom.

Torrent And Magnet Links Below

DATI – TRAMA

Titolo Originale: Casino

Anno: 1995

Genere: Crime, Drama

Durata: 178

Nazione: United States, France

Regista: Martin Scorsese

Sceneggiatura: Nicholas Pileggi, Nicholas Pileggi, Martin Scorsese

Produzione: Universal Pictures, Syalis DA, Légende Entreprises, De Fina-Cappa, GGG

Cast: Robert De Niro, Sharon Stone, Joe Pesci, James Woods, Don Rickles, Alan King, Kevin Pollak, L.Q. Jones, Dick Smothers, Frank Vincent, John Bloom, Pasquale Cajano, Melissa Prophet, Bill Allison, Vinny Vella, Philip Suriano, Erika von Tagen, Frankie Avalon, Steve Allen, Jayne Meadows

Casinò, è un film del 1995 diretto da Martin Scorsese. Il malavitoso Remo Gaggi (Pasquale Cajano), a capo dell’organizzazione criminale Chicago Outfit, ripone una grande fiducia in Sam Rothstein (Robert De Niro) detto Asso. L’uomo, dopo aver arricchito la famiglia Gaggi con la sua bravura nelle scommesse, viene incaricato di gestire il casinò Tangiers a Las Vegas.Dopo aver aggirato la legge grazie alle lacune burocratiche della Contea, Asso diventa il gestore del casinò e in breve tempo riesce ad ottenere incredibili profitti con la complicità del fittizio proprietario Phillip Green (Kevin Pollak). Mentre il Tangiers diventa celebre e ospita personalità di spicco, Gaggi incarica Nicky Santoro (Joe Pesci) di controllare gli affari di Asso. Pur essendo amici di vecchia data, Asso teme che i metodi barbari di Nicky possano mettere in pericolo il suo traffico d’illeciti. Le sue preoccupazioni, tuttavia, sono momentaneamente sollevate dall’incontro con l’affascinante Ginger McKenna (Sharon Stone).Sebbene la donna sia invischiata nel giro di prostituzione e droga insieme al pappone Lester Diamond (James Woods), dal quale è totalmente dipendente, Asso sottovaluta le profonde problematicità di Ginger e le chiede di sposarlo.Nicky e i suoi uomini, intanto, si fanno notare dalla legge e vengono banditi dai casinò della città. Il malavitoso pianifica di rubare e riciclare il denaro sporco aprendo un ristornate e una gioielleria, che gli permettano di avere una valida copertura finanziaria. In breve tempo, Nicky diventa il boss di Las Vegas e Asso, il cui matrimonio sta velocemente andando in frantumi, inizia a perdere la sua popolarità. Quando una collaboratrice di Green minaccerà di portare a galla gli illeciti del Tangiers, Sam rischierà di essere estromesso e di perdere la sua popolarità e Nicky diventerà il bersaglio numero uno dei federali…

IMMAGINI



REPORT

General

Unique ID : 359510046266759870898000456447875601 (0x453D36BA81E7DF3F861066AAEEDA11)

Complete name : Casino.1995.UHD.BluRay.HDR.2160p.DTS.iTA.ENG.Subs.x265-BJL.mkv

Format : Matroska

Format version : Version 4

File size : 30.8 GiB

Duration : 2 h 58 min

Overall bit rate : 24.8 Mb/s

Encoded by : BJL

Encoded date : UTC 2021-01-06 21:24:57

Writing application : mkvmerge v52.0.0 (‘Secret For The Mad’) 64-bit

Writing library : libebml v1.4.1 + libmatroska v1.6.2

Cover : Yes

Attachments : cover.png

DATA_RILASCIO : 1995

IMDb : tt0112641

ORIGINAL_MEDIA : UHD BluRay+BluRay

TITOLO : Casino’ (Scorsese, 1995)

TRAMA : Casino’, e’ un film del 1995 diretto da Martin Scorsese. Il malavitoso Remo Gaggi (Pasquale Cajano), a capo dell’organizzazione criminale Chicago Outfit, ripone una grande fiducia in Sam Rothstein (Robert De Niro) detto Asso. L’uomo, dopo aver arricchito la famiglia Gaggi con la sua bravura nelle scommesse, viene incaricato di gestire il casino’ Tangiers a Las Vegas. Dopo aver aggirato la legge grazie alle lacune burocratiche della Contea, Asso diventa il gestore del casino’ e in breve tempo riesce ad ottenere incredibili profitti con la complicita’ del fittizio proprietario Phillip Green (Kevin Pollak). Mentre il Tangiers diventa celebre e ospita personalita’ di spicco, Gaggi incarica Nicky Santoro (Joe Pesci) di controllare gli affari di Asso. Pur essendo amici di vecchia data, Asso teme che i metodi barbari di Nicky possano mettere in pericolo il suo traffico d’illeciti. Le sue preoccupazioni, tuttavia, sono momentaneamente sollevate dall’incontro con l’affascinante Ginger McKenna (Sharon Stone). Sebbene la donna sia invischiata nel giro di prostituzione e droga insieme al pappone Lester Diamond (James Woods), dal quale e’ totalmente dipendente, Asso sottovaluta le profonde problematicita’ di Ginger e le chiede di sposarlo. Nicky e i suoi uomini, intanto, si fanno notare dalla legge e vengono banditi dai casino’ della citta’. Il malavitoso pianifica di rubare e riciclare il denaro sporco aprendo un ristornate e una gioielleria, che gli permettano di avere una valida copertura finanziaria. In breve tempo, Nicky diventa il boss di Las Vegas e Asso, il cui matrimonio sta velocemente andando in frantumi, inizia a perdere la sua popolarita’. Quando una collaboratrice di Green minaccera’ di portare a galla gli illeciti del Tangiers, Sam rischiera’ di essere estromesso e di perdere la sua popolarita’ e Nicky diventera’ il bersaglio numero uno dei federali…

Video

ID : 1

Format : HEVC

Format/Info : High Efficiency Video Coding

Format profile : Main [email protected]@High

HDR format : SMPTE ST 2086, HDR10 compatible

Codec ID : V_MPEGH/ISO/HEVC

Duration : 2 h 58 min

Bit rate : 22.1 Mb/s

Width : 3 840 pixels

Height : 1 634 pixels

Display aspect ratio : 2.35:1

Frame rate mode : Constant

Frame rate : 23.976 (24000/1001) FPS

Color space : YUV

Chroma subsampling : 4:2:0 (Type 2)

Bit depth : 10 bits

Bits/(Pixel*Frame) : 0.147

Stream size : 27.5 GiB (89%)

Title : Video Bitrate=22068 kbps – Avg.DRF=21.13 [Encoded by BJL]
Writing library : x265 3.4+26-ga82c6c7a7:[Windows][GCC 10.2.1][64 bit] 10bit

Encoding settings : cpuid=1049583 / frame-threads=3 / numa-pools=12 / wpp / no-pmode / no-pme / no-psnr / no-ssim / log-level=2 / input-csp=1 / input-res=3840×1634 / interlace=0 / total-frames=256391 / level-idc=51 / high-tier=1 / uhd-bd=0 / ref=4 / no-allow-non-conformance / repeat-headers / annexb / no-aud / hrd / info / hash=0 / no-temporal-layers / open-gop / min-keyint=23 / keyint=250 / gop-lookahead=0 / bframes=9 / b-adapt=2 / b-pyramid / bframe-bias=0 / rc-lookahead=30 / lookahead-slices=4 / scenecut=40 / hist-scenecut=0 / radl=0 / no-splice / no-intra-refresh / ctu=64 / min-cu-size=8 / rect / no-amp / max-tu-size=32 / tu-inter-depth=1 / tu-intra-depth=1 / limit-tu=0 / rdoq-level=2 / dynamic-rd=0.00 / no-ssim-rd / signhide / no-tskip / nr-intra=0 / nr-inter=0 / no-constrained-intra / no-strong-intra-smoothing / max-merge=3 / limit-refs=3 / limit-modes / me=3 / subme=4 / merange=57 / temporal-mvp / no-frame-dup / no-hme / weightp / weightb / no-analyze-src-pics / deblock=-3:-3 / no-sao / no-sao-non-deblock / rd=4 / selective-sao=0 / no-early-skip / rskip / no-fast-intra / no-tskip-fast / no-cu-lossless / no-b-intra / no-splitrd-skip / rdpenalty=0 / psy-rd=2.00 / psy-rdoq=1.00 / no-rd-refine / no-lossless / cbqpoffs=0 / crqpoffs=0 / rc=crf / crf=16.4 / qcomp=0.60 / qpstep=4 / stats-write=0 / stats-read=0 / vbv-maxrate=160000 / vbv-bufsize=160000 / vbv-init=0.9 / min-vbv-fullness=50.0 / max-vbv-fullness=80.0 / crf-max=0.0 / crf-min=0.0 / ipratio=1.40 / pbratio=1.30 / aq-mode=3 / aq-strength=0.80 / cutree / zone-count=1 / zones: / start-frame=247560 / end-frame=256391 / qp=21 / no-strict-cbr / qg-size=32 / no-rc-grain / qpmax=69 / qpmin=0 / no-const-vbv / sar=1 / overscan=0 / videoformat=5 / range=0 / colorprim=9 / transfer=16 / colormatrix=9 / chromaloc=1 / chromaloc-top=2 / chromaloc-bottom=2 / display-window=0 / master-display=G(13250,34500)B(7500,3000)R(34000,16000)WP(15635,16450)L(10000000,50) / cll=1000,243 / min-luma=0 / max-luma=1023 / log2-max-poc-lsb=8 / vui-timing-info / vui-hrd-info / slices=1 / no-opt-qp-pps / no-opt-ref-list-length-pps / no-multi-pass-opt-rps / scenecut-bias=0.05 / hist-threshold=0.03 / no-opt-cu-delta-qp / no-aq-motion / hdr10 / hdr10-opt / no-dhdr10-opt / no-idr-recovery-sei / analysis-reuse-level=0 / analysis-save-reuse-level=0 / analysis-load-reuse-level=0 / scale-factor=0 / refine-intra=0 / refine-inter=0 / refine-mv=1 / refine-ctu-distortion=0 / no-limit-sao / ctu-info=0 / no-lowpass-dct / refine-analysis-type=0 / copy-pic=1 / max-ausize-factor=1.0 / no-dynamic-refine / no-single-sei / no-hevc-aq / no-svt / no-field / qp-adaptation-range=1.00 / no-scenecut-aware-qpconformance-window-offsets / right=0 / bottom=0 / decoder-max-rate=0 / no-vbv-live-multi-pass

Default : Yes

Forced : No

Color range : Limited

Color primaries : BT.2020

Transfer characteristics : PQ

Matrix coefficients : BT.2020 non-constant

Mastering display color pri : Display P3

Mastering display luminance : min: 0.0050 cd/m2, max: 1000 cd/m2

Maximum Content Light Level : 1000 cd/m2

Maximum Frame-Average Light : 243 cd/m2

Audio #1

ID : 2

Format : DTS

Format/Info : Digital Theater Systems

Codec ID : A_DTS

Duration : 2 h 58 min

Bit rate mode : Constant

Bit rate : 768 kb/s

Channel(s) : 6 channels

Channel layout : C L R Ls Rs LFE

Sampling rate : 48.0 kHz

Frame rate : 93.750 FPS (512 SPF)

Bit depth : 24 bits

Compression mode : Lossy

Stream size : 980 MiB (3%)

Title : Italiano DTS 5.1

Language : Italian

Default : Yes

Forced : No

Audio #2

ID : 3

Format : DTS

Format/Info : Digital Theater Systems

Codec ID : A_DTS

Duration : 2 h 58 min

Bit rate mode : Constant

Bit rate : 1 509 kb/s

Channel(s) : 6 channels

Channel layout : C L R Ls Rs LFE

Sampling rate : 48.0 kHz

Frame rate : 93.750 FPS (512 SPF)

Bit depth : 24 bits

Compression mode : Lossy

Stream size : 1.88 GiB (6%)

Title : English DTS 5.1

Language : English

Default : No

Forced : No

Audio #3

ID : 4

Format : AC-3

Format/Info : Audio Coding 3

Commercial name : Dolby Digital

Codec ID : A_AC3

Duration : 2 h 58 min

Bit rate mode : Constant

Bit rate : 192 kb/s

Channel(s) : 2 channels

Channel layout : L R

Sampling rate : 48.0 kHz

Frame rate : 31.250 FPS (1536 SPF)

Compression mode : Lossy

Stream size : 245 MiB (1%)

Title : Commentary by cast and crew

Language : English

Service kind : Complete Main

Default : No

Forced : No

Text #1

ID : 5

Format : PGS

Codec ID : S_HDMV/PGS

Codec ID/Info : Picture based subtitle format used on BDs/HD-DVDs

Duration : 2 h 51 min

Bit rate : 41.0 kb/s

Count of elements : 5516

Stream size : 50.3 MiB (0%)

Title : Italiano Normal

Language : Italian

Default : No

Forced : No

Text #2

ID : 6

Format : PGS

Codec ID : S_HDMV/PGS

Codec ID/Info : Picture based subtitle format used on BDs/HD-DVDs

Duration : 2 h 55 min

Bit rate : 66.1 kb/s

Count of elements : 7288

Stream size : 82.9 MiB (0%)

Title : English SDH

Language : English

Default : No

Forced : No

Text #3

ID : 7

Format : PGS

Codec ID : S_HDMV/PGS

Codec ID/Info : Picture based subtitle format used on BDs/HD-DVDs

Duration : 2 h 55 min

Bit rate : 50.9 kb/s

Count of elements : 6020

Stream size : 64.0 MiB (0%)

Title : Commentary by cast and crew

Language : Italian

Default : No

Forced : No

Text #4

ID : 8

Format : PGS

Codec ID : S_HDMV/PGS

Codec ID/Info : Picture based subtitle format used on BDs/HD-DVDs

Duration : 2 h 54 min

Bit rate : 68.4 kb/s

Count of elements : 6100

Stream size : 85.3 MiB (0%)

Title : Commentary by cast and crew

Language : English

Default : No

Forced : No

Menu

00:00:00.000 : :Chapter 01

00:04:55.628 : :Chapter 02

00:21:58.233 : :Chapter 03

00:27:49.584 : :Chapter 04

00:33:46.733 : :Chapter 05

00:38:57.168 : :Chapter 06

00:58:23.124 : :Chapter 07

01:06:11.300 : :Chapter 08

01:26:24.637 : :Chapter 09

01:31:49.754 : :Chapter 10

02:00:29.513 : :Chapter 11

02:14:10.375 : :Chapter 12

02:28:31.569 : :Chapter 13

02:39:55.794 : :Chapter 14

02:46:56.464 : :Chapter 15

02:50:12.118 : :Chapter 16

GOOD DOWNLOAD

Casino.1995.UHD.BluRay.HDR.21Download Torrent Magnet

#Casino1995UHDBluRayHDR21