Captain America Civil War (20 Full Torrent Magnet Download

Download Torrent Captain America Civil War (20 Movie Full in HD Result. Movie Captain America Civil War (20 Torrent Download full. Movie Captain America Civil War (20 torrent Magnet Download Full. Captain America Civil War (20 Full Movie Torrent Download And Magnet Download For your PC And Mobiles. Latest Movie Captain America Civil War (20 Download Link In Bottom.

Torrent And Magnet Links Below


Media Information

Media Information

Code:

General
Format : Matroska

Format version : Version 4 / Version 2

File size : 2.10 GiB

Duration : 2 h 27 min

Overall bit rate : 2 034 kb/s

Encoded date : UTC 2021-01-27 13:35:55

Writing application : mkvmerge v52.0.0 (‘Secret For The Mad’) 64-bit

Writing library : libebml v1.4.1 + libmatroska v1.6.2

Cover : Yes

Attachments : cover.jpg

Video
ID : 1

Format : HEVC

Format/Info : High Efficiency Video Coding

Format profile : Main [email protected]@Main

Codec ID : V_MPEGH/ISO/HEVC

Duration : 2 h 27 min

Bit rate : 1 501 kb/s

Width : 1 920 pixels

Height : 800 pixels

Display aspect ratio : 2.40:1

Frame rate mode : Constant

Frame rate : 23.976 (24000/1001) FPS

Color space : YUV

Chroma subsampling : 4:2:0

Bit depth : 10 bits

Bits/(Pixel*Frame) : 0.041

Stream size : 1.55 GiB (74%)

Writing library : x265 3.2+9-971180b100f8:[Windows][GCC 9.2.0][64 bit] 10bit

Encoding settings : cpuid=1111039 / frame-threads=3 / numa-pools=12 / wpp / no-pmode / no-pme / no-psnr / ssim / log-level=2 / input-csp=1 / input-res=1920×800 / interlace=0 / total-frames=212475 / level-idc=0 / high-tier=1 / uhd-bd=0 / ref=4 / no-allow-non-conformance / no-repeat-headers / annexb / no-aud / no-hrd / info / hash=0 / no-temporal-layers / open-gop / min-keyint=23 / keyint=250 / gop-lookahead=0 / bframes=12 / b-adapt=2 / b-pyramid / bframe-bias=50 / rc-lookahead=80 / lookahead-slices=4 / scenecut=40 / radl=0 / no-splice / no-intra-refresh / ctu=64 / min-cu-size=8 / rect / no-amp / max-tu-size=32 / tu-inter-depth=1 / tu-intra-depth=1 / limit-tu=0 / rdoq-level=2 / dynamic-rd=0.00 / ssim-rd / signhide / no-tskip / nr-intra=0 / nr-inter=0 / constrained-intra / strong-intra-smoothing / max-merge=5 / limit-refs=3 / limit-modes / me=3 / subme=5 / merange=57 / temporal-mvp / no-frame-dup / no-hme / weightp / no-weightb / no-analyze-src-pics / deblock=0:0 / sao / no-sao-non-deblock / rd=4 / selective-sao=4 / early-skip / rskip / no-fast-intra / no-tskip-fast / no-cu-lossless / no-b-intra / splitrd-skip / rdpenalty=0 / psy-rd=3.50 / psy-rdoq=2.50 / no-rd-refine / no-lossless / cbqpoffs=0 / crqpoffs=0 / rc=abr / bitrate=1500 / qcomp=0.60 / qpstep=4 / stats-write=0 / stats-read=2 / cplxblur=20.0 / qblur=0.5 / ipratio=1.40 / pbratio=1.30 / aq-mode=3 / aq-strength=0.40 / cutree / zone-count=0 / no-strict-cbr / qg-size=32 / no-rc-grain / qpmax=69 / qpmin=0 / no-const-vbv / sar=0 / overscan=0 / videoformat=5 / range=0 / colorprim=2 / transfer=2 / colormatrix=2 / chromaloc=0 / display-window=0 / cll=0,0 / min-luma=0 / max-luma=1023 / log2-max-poc-lsb=8 / vui-timing-info / vui-hrd-info / slices=1 / no-opt-qp-pps / no-opt-ref-list-length-pps / multi-pass-opt-rps / scenecut-bias=0.05 / no-opt-cu-delta-qp / no-aq-motion / no-hdr / no-hdr-opt / no-dhdr10-opt / no-idr-recovery-sei / analysis-load / analysis-reuse-level=10 / scale-factor=0 / refine-intra=0 / refine-inter=0 / refine-mv=1 / refine-ctu-distortion=0 / limit-sao / ctu-info=0 / no-lowpass-dct / refine-analysis-type=0 / copy-pic=1 / max-ausize-factor=1.0 / no-dynamic-refine / no-single-sei / no-hevc-aq / no-svt / no-field / qp-adaptation-range=1.00

Default : Yes

Forced : No

Audio #1
ID : 2

Format : AAC

Format/Info : Advanced Audio Codec

Format profile : LC

Codec ID : A_AAC

Duration : 2 h 27 min

Bit rate : 419 kb/s

Channel(s) : 8 channels

Channel positions : Front: L C R, Side: L R, Back: L R, LFE

Sampling rate : 48.0 kHz

Frame rate : 46.875 FPS (1024 spf)

Compression mode : Lossy

Delay relative to video : 9 ms

Stream size : 442 MiB (21%)

Language : English

Default : No

Forced : No

Audio #2
ID : 15

Format : AAC

Format/Info : Advanced Audio Codec

Format profile : HE-AAC / LC

Codec ID : A_AAC

Duration : 2 h 27 min

Bit rate : 50.0 kb/s

Channel(s) : 2 channels

Channel positions : Front: L R

Sampling rate : 48.0 kHz / 24.0 kHz

Frame rate : 23.438 FPS (1024 spf)

Compression mode : Lossy

Delay relative to video : 31 ms

Stream size : 52.9 MiB (2%)

Title : Commentary

Language : English

Default : No

Forced : No

Subtitle #1
ID : 3

Format : PGS

Muxing mode : zlib

Codec ID : S_HDMV/PGS

Codec ID/Info : Picture based subtitle format used on BDs/HD-DVDs

Duration : 2 h 26 min

Bit rate : 35.4 kb/s

Count of elements : 4210

Stream size : 37.1 MiB (2%)

Title : English-PGS

Language : English

Default : No

Forced : No

Subtitle #2
ID : 4

Format : UTF-8

Codec ID : S_TEXT/UTF8

Codec ID/Info : UTF-8 Plain Text

Duration : 2 h 25 min

Bit rate : 49 b/s

Count of elements : 1863

Stream size : 53.1 KiB (0%)

Title : English-SRT

Language : English

Default : No

Forced : No

Subtitle #3
ID : 5

Format : UTF-8

Codec ID : S_TEXT/UTF8

Codec ID/Info : UTF-8 Plain Text

Duration : 2 h 26 min

Bit rate : 53 b/s

Count of elements : 2104

Stream size : 56.9 KiB (0%)

Title : English-SDH-SRT

Language : English

Default : No

Forced : No

Subtitle #4
ID : 6

Format : UTF-8

Codec ID : S_TEXT/UTF8

Codec ID/Info : UTF-8 Plain Text

Duration : 1 h 44 min

Bit rate : 1 b/s

Count of elements : 58

Stream size : 983 Bytes (0%)

Title : English-FORCED-SRT

Language : English

Default : No

Forced : Yes

Subtitle #5
ID : 7

Format : VobSub

Muxing mode : zlib

Codec ID : S_VOBSUB

Codec ID/Info : Picture based subtitle format used on DVDs

Duration : 2 h 26 min

Bit rate : 8 096 b/s

Count of elements : 1700

Stream size : 8.47 MiB (0%)

Language : French

Default : No

Forced : No

Subtitle #6
ID : 8

Format : VobSub

Muxing mode : zlib

Codec ID : S_VOBSUB

Codec ID/Info : Picture based subtitle format used on DVDs

Duration : 2 h 26 min

Bit rate : 7 217 b/s

Count of elements : 1614

Stream size : 7.55 MiB (0%)

Language : French

Default : No

Forced : No

Subtitle #7
ID : 9

Format : VobSub

Muxing mode : zlib

Codec ID : S_VOBSUB

Codec ID/Info : Picture based subtitle format used on DVDs

Duration : 2 h 26 min

Bit rate : 8 286 b/s

Count of elements : 1705

Stream size : 8.67 MiB (0%)

Language : Spanish

Default : No

Forced : No

Subtitle #8
ID : 10

Format : VobSub

Muxing mode : zlib

Codec ID : S_VOBSUB

Codec ID/Info : Picture based subtitle format used on DVDs

Duration : 2 h 25 min

Bit rate : 8 865 b/s

Count of elements : 1666

Stream size : 9.26 MiB (0%)

Language : German

Default : No

Forced : No

Subtitle #9
ID : 11

Format : VobSub

Muxing mode : zlib

Codec ID : S_VOBSUB

Codec ID/Info : Picture based subtitle format used on DVDs

Duration : 2 h 26 min

Bit rate : 8 296 b/s

Count of elements : 1721

Stream size : 8.68 MiB (0%)

Language : Italian

Default : No

Forced : No

Subtitle #10
ID : 12

Format : VobSub

Muxing mode : zlib

Codec ID : S_VOBSUB

Codec ID/Info : Picture based subtitle format used on DVDs

Duration : 2 h 27 min

Bit rate : 5 738 b/s

Count of elements : 1538

Stream size : 6.05 MiB (0%)

Language : Japanese

Default : No

Forced : No

Subtitle #11
ID : 13

Format : VobSub

Muxing mode : zlib

Codec ID : S_VOBSUB

Codec ID/Info : Picture based subtitle format used on DVDs

Duration : 2 h 26 min

Bit rate : 7 854 b/s

Count of elements : 1684

Stream size : 8.22 MiB (0%)

Language : Norwegian Bokmal

Default : No

Forced : No

Subtitle #12
ID : 14

Format : VobSub

Muxing mode : zlib

Codec ID : S_VOBSUB

Codec ID/Info : Picture based subtitle format used on DVDs

Duration : 2 h 26 min

Bit rate : 7 066 b/s

Count of elements : 1114

Stream size : 7.40 MiB (0%)

Language : Swedish

Default : No

Forced : No

Subtitle #13
ID : 16

Format : VobSub

Muxing mode : zlib

Codec ID : S_VOBSUB

Codec ID/Info : Picture based subtitle format used on DVDs

Duration : 2 h 26 min

Bit rate : 4 399 b/s

Count of elements : 1691

Stream size : 4.60 MiB (0%)

Language : Arabic

Default : No

Forced : No

Subtitle #14
ID : 17

Format : VobSub

Muxing mode : zlib

Codec ID : S_VOBSUB

Codec ID/Info : Picture based subtitle format used on DVDs

Duration : 2 h 26 min

Bit rate : 8 107 b/s

Count of elements : 1553

Stream size : 8.49 MiB (0%)

Language : Dutch

Default : No

Forced : No

Subtitle #15
ID : 18

Format : UTF-8

Codec ID : S_TEXT/UTF8

Codec ID/Info : UTF-8 Plain Text

Duration : 2 h 27 min

Bit rate : 39 b/s

Count of elements : 1766

Stream size : 42.5 KiB (0%)

Language : Chinese

Default : No

Forced : No

Subtitle #16
ID : 19

Format : UTF-8

Codec ID : S_TEXT/UTF8

Codec ID/Info : UTF-8 Plain Text

Duration : 2 h 26 min

Bit rate : 44 b/s

Count of elements : 1282

Stream size : 48.1 KiB (0%)

Language : Danish

Default : No

Forced : No

Subtitle #17
ID : 20

Format : UTF-8

Codec ID : S_TEXT/UTF8

Codec ID/Info : UTF-8 Plain Text

Duration : 2 h 27 min

Bit rate : 81 b/s

Count of elements : 1855

Stream size : 88.2 KiB (0%)

Language : Persian

Default : No

Forced : No

Subtitle #18
ID : 21

Format : UTF-8

Codec ID : S_TEXT/UTF8

Codec ID/Info : UTF-8 Plain Text

Duration : 2 h 26 min

Bit rate : 44 b/s

Count of elements : 1683

Stream size : 47.6 KiB (0%)

Language : Finnish

Default : No

Forced : No

Subtitle #19
ID : 22

Format : UTF-8

Codec ID : S_TEXT/UTF8

Codec ID/Info : UTF-8 Plain Text

Duration : 2 h 25 min

Bit rate : 52 b/s

Count of elements : 1666

Stream size : 55.6 KiB (0%)

Language : German

Default : No

Forced : No

Subtitle #20
ID : 23

Format : UTF-8

Codec ID : S_TEXT/UTF8

Codec ID/Info : UTF-8 Plain Text

Duration : 2 h 26 min

Bit rate : 88 b/s

Count of elements : 1589

Stream size : 94.6 KiB (0%)

Language : Greek

Default : No

Forced : No

Subtitle #21
ID : 24

Format : UTF-8

Codec ID : S_TEXT/UTF8

Codec ID/Info : UTF-8 Plain Text

Duration : 2 h 19 min

Bit rate : 55 b/s

Count of elements : 1545

Stream size : 56.6 KiB (0%)

Language : Italian

Default : No

Forced : No

Subtitle #22
ID : 25

Format : UTF-8

Codec ID : S_TEXT/UTF8

Codec ID/Info : UTF-8 Plain Text

Duration : 2 h 26 min

Bit rate : 46 b/s

Count of elements : 1685

Stream size : 49.6 KiB (0%)

Language : Norwegian

Default : No

Forced : No

Subtitle #23
ID : 26

Format : UTF-8

Codec ID : S_TEXT/UTF8

Codec ID/Info : UTF-8 Plain Text

Duration : 2 h 26 min

Bit rate : 50 b/s

Count of elements : 1685

Stream size : 54.3 KiB (0%)

Language : Spanish

Default : No

Forced : No

Subtitle #24
ID : 27

Format : UTF-8

Codec ID : S_TEXT/UTF8

Codec ID/Info : UTF-8 Plain Text

Duration : 2 h 26 min

Bit rate : 43 b/s

Count of elements : 1116

Stream size : 46.4 KiB (0%)

Language : Swedish

Default : No

Forced : No

Subtitle #25
ID : 28

Format : UTF-8

Codec ID : S_TEXT/UTF8

Codec ID/Info : UTF-8 Plain Text

Duration : 2 h 27 min

Bit rate : 94 b/s

Count of elements : 1698

Stream size : 103 KiB (0%)

Language : Thai

Default : No

Forced : No

Subtitle #26
ID : 29

Format : ASS

Codec ID : S_TEXT/ASS

Codec ID/Info : Advanced Sub Station Alpha

Duration : 2 h 27 min

Bit rate : 104 b/s

Count of elements : 1576

Compression mode : Lossless

Stream size : 112 KiB (0%)

Language : Vietnamese

Default : No

Forced : No

Menu
00:00:00.000 : en:Chapter 01

00:09:01.958 : en:Chapter 02

00:13:04.992 : en:Chapter 03

00:21:03.011 : en:Chapter 04

00:27:53.380 : en:Chapter 05

00:31:57.290 : en:Chapter 06

00:35:08.106 : en:Chapter 07

00:42:58.242 : en:Chapter 08

00:52:04.621 : en:Chapter 09

01:05:39.101 : en:Chapter 10

01:16:41.638 : en:Chapter 11

01:22:28.777 : en:Chapter 12

01:29:29.489 : en:Chapter 13

01:34:09.769 : en:Chapter 14

01:45:38.540 : en:Chapter 15

01:55:54.113 : en:Chapter 16

02:02:35.056 : en:Chapter 17

02:12:14.176 : en:Chapter 18

02:18:29.301 : en:Chapter 19

Source Information

Code:

Release:
Captain.America.Civil.War.2016.2160p.BluRay.REMUX.HEVC.DTS-HD.MA.TrueHD.7.1.Atmos-FGT.mkv (59.02 GBs)

Code:


Note From UTR
Whilst we are happy for our releases to be re-posted on a platform we aren’t on, please do so in an ‘as-is’ format. We ask that you do not create a new torrent, include all descriptions you see above including the UTR logo, tags, notes and screenshots. If you’d like to become a permanent poster on a website we don’t post to, feel free to get in contact with a UTR member.

If possible please donate for seedboxes.

BTC – 1QA5fum5AyXvWzdVCkQzUNvw3Ef15fHRaR

Monero – 8AuksPSzY7fen3HHT1a2342PgVy4J93MKfXG3AAcayV76miTyJ3sNfn38srwrpLirGfeR5DwhTL8GW8pdQgT7bZcJ25ynMx

Dash – Xh4mNs6uwZdpCEX2HSEVwGvPD7yKxZ1Ccd

Ethereum – 0x51c06c94e74c16735a7a6e841ad29fc90a84eb1f

Captain America Civil War (20Download Torrent Magnet

#Captain #America #Civil #War