Byzantium (2012) 720p h264 Ac Full Torrent Magnet Download

Download Torrent Byzantium (2012) 720p h264 Ac Movie Full in HD Result. Movie Byzantium (2012) 720p h264 Ac Torrent Download full. Movie Byzantium (2012) 720p h264 Ac torrent Magnet Download Full. Byzantium (2012) 720p h264 Ac Full Movie Torrent Download And Magnet Download For your PC And Mobiles. Latest Movie Byzantium (2012) 720p h264 Ac Download Link In Bottom.

Torrent And Magnet Links Below

Byzantium (2012) 720p h264 Ac3 5.1 Ita Eng Sub Ita Eng – MIRCrew

NO FOUND ONLY ORIGINAL RELEASE

My release is always in double track audio italian and Original audio

for select it use VLC or dvd player home

not use wmp

Byzantium (2012)

Quality MIRCrew on HD 720p da 2,1 gb

 

Titolo originale Byzantium

Lingua originale inglese

Paese di produzione Irlanda, Regno Unito

Anno 2012

Durata 118 min

Genere drammatico, Horror

Regia Neil Jordan

Soggetto Moira Buffini

Sceneggiatura Moira Buffini

Fotografia Sean Bobbitt

Montaggio Tony Lawson

Effetti speciali Kevin Byrne, Neal Champion, Bernard Newton, Scott Peters, Kevin Nolan

Musiche Javier Navarrete

Scenografia Simon Elliott

Costumi Consolata Boyle

Trucco Lynn Johnston

   Gemma Arterton: Clara

   Saoirse Ronan: Eleanor

   Sam Riley: Darvell

   Jonny Lee Miller: Ruthven

   Daniel Mays: Noel

   Caleb Landry Jones: Frank

   Kate Ashfield: Gabi

   Maria Doyle Kennedy: Morag

   Uri Gavriel: Savella

   Thure Lindhardt: Werner

   Tom Hollander (non accreditato): Kevin Minton

Eleanor e Clara sono due giovani donne che dopo essere fuggite dalla scena di un violento crimine si rifugiano in una località costiera, trovando riparo sul lungomare e in motel fatiscenti. Per guadagnare un po’ di denaro Clara inizia a prostituirsi ed un giorno incontra il timido Noel che le mette a disposizione il suo fatiscente motel, il Byzantium, che la ragazza, sempre proiettata verso il futuro, trasforma in un bordello……

Two mysterious women seek refuge in a run-down coastal resort. Clara meets lonely Noel, who provides shelter in his deserted guesthouse, Byzantium. Schoolgirl Eleanor befriends Frank and tells him their lethal secret. They were born 200 years ago and survive on human blood. As knowledge of their secret spreads…

[spoiler]
General

Complete name                            : Byzantium (2012) 720p h264 Ac3 5.1 Ita Eng Sub Ita Eng – MIRCrewByzantium (2012) 720p h264 Ac3 5.1 Ita Eng Sub Ita Eng – MIRCrew.mkv

Format                                   : Matroska

Format version                           : Version 2

File size                                : 2.21 GiB

Duration                                 : 1h 58mn

Overall bit rate                         : 2 667 Kbps

Movie name                               : MIRCrew

Encoded date                             : UTC 2021-04-28T16:01:24Z

Writing application                      : mkvmerge v5.8.0 (‘No Sleep / Pillow’) built on Sep  2 2012 15:37:04

Writing library                          : Lavf55.12.0

Video

ID                                       : 1

Format                                   : AVC

Format/Info                              : Advanced Video Codec

Format profile                           : [email protected]
Format settings, CABAC                   : Yes

Format settings, ReFrames                : 4 frames

Codec ID                                 : V_MPEG4/ISO/AVC

Duration                                 : 1h 58mn

Bit rate                                 : 1 900 Kbps

Width                                    : 1 280 pixels

Height                                   : 544 pixels

Display aspect ratio                     : 2.35:1

Frame rate                               : 23.976 fps

Color space                              : YUV

Chroma subsampling                       : 4:2:0

Bit depth                                : 8 bits

Scan type                                : Progressive

Bits/(Pixel*Frame)                       : 0.114

Stream size                              : 1.53 GiB (69%)

Title                                    : MIRCrew

Writing library                          : x264 core 142 r2479 dd79a61

Encoding settings                        : cabac=1 / ref=1 / deblock=1:0:0
Language                                 : Italian

Default                                  : Yes

Forced                                   : No

Color primaries                          : BT.709-5, BT.1361, IEC 61966-2-4, SMPTE RP177

Transfer characteristics                 : BT.709-5, BT.1361

Matrix coefficients                      : BT.709-5, BT.1361, IEC 61966-2-4 709, SMPTE RP177

Audio #1

ID                                       : 2

Format                                   : AC-3

Format/Info                              : Audio Coding 3

Mode extension                           : CM (complete main)

Codec ID                                 : A_AC3

Duration                                 : 1h 58mn

Bit rate mode                            : Constant

Bit rate                                 : 384 Kbps

Channel(s)                               : 6 channels

Channel positions                        : Front: L C R, Side: L R, LFE

Sampling rate                            : 48.0 KHz

Bit depth                                : 16 bits

Compression mode                         : Lossy

Delay relative to video                  : -5ms

Stream size                              : 326 MiB (14%)

Title                                    : Ita Ac3 5.1

Language                                 : Italian

Default                                  : Yes

Forced                                   : No

Audio #2

ID                                       : 3

Format                                   : AC-3

Format/Info                              : Audio Coding 3

Mode extension                           : CM (complete main)

Codec ID                                 : A_AC3

Duration                                 : 1h 58mn

Bit rate mode                            : Constant

Bit rate                                 : 384 Kbps

Channel(s)                               : 6 channels

Channel positions                        : Front: L C R, Side: L R, LFE

Sampling rate                            : 48.0 KHz

Bit depth                                : 16 bits

Compression mode                         : Lossy

Delay relative to video                  : -5ms

Stream size                              : 326 MiB (14%)

Title                                    : Eng Ac3 5.1

Language                                 : English

Default                                  : No

Forced                                   : No

[/spoiler]

Byzantium (2012) 720p h264 AcDownload Torrent Magnet

#Byzantium #720p #h264