Burrow.2020.1080p.WEB-DL.x264 Full Torrent Magnet Download

Download Torrent Burrow.2020.1080p.WEB-DL.x264 Movie Full in HD Result. Movie Burrow.2020.1080p.WEB-DL.x264 Torrent Download full. Movie Burrow.2020.1080p.WEB-DL.x264 torrent Magnet Download Full. Burrow.2020.1080p.WEB-DL.x264 Full Movie Torrent Download And Magnet Download For your PC And Mobiles. Latest Movie Burrow.2020.1080p.WEB-DL.x264 Download Link In Bottom.

Torrent And Magnet Links Below

Release: Burrow.2020.1080p.WEB-DL.x264.AC3.HORiZON-ArtSubs

IMDB: https://www.imdb.com/title/tt13167288

Plot: A young rabbit tries to build the burrow of her dreams, becoming embarrassed each time she accidentally digs into a neighbor’s home. Nominated for Best Animated Short Film in the Oscar 2021.

General

Complete name : Burrow.2020.1080p.WEB-DL.x264.AC3.HORiZON-ArtSubs.mkv

Format : Matroska

Format version : Version 4

File size : 264 MiB

Duration : 6 min 16 s

Overall bit rate : 5 881 kb/s

Encoded date : UTC 2021-02-10 13:25:15

Writing application : mkvmerge v50.0.0 (‘Awakenings’) 64-bit

Writing library : libebml v1.4.0 + libmatroska v1.6.2

Video

ID : 1

Format : AVC

Format/Info : Advanced Video Codec

Format profile : [email protected]
Format settings : CABAC / 4 Ref Frames

Format settings, CABAC : Yes

Format settings, Reference : 4 frames

Codec ID : V_MPEG4/ISO/AVC

Duration : 6 min 16 s

Bit rate : 5 500 kb/s

Width : 1 920 pixels

Height : 1 080 pixels

Display aspect ratio : 16:9

Frame rate mode : Constant

Frame rate : 23.976 (24000/1001) FPS

Color space : YUV

Chroma subsampling : 4:2:0

Bit depth : 8 bits

Scan type : Progressive

Bits/(Pixel*Frame) : 0.111

Stream size : 246 MiB (93%)

Writing library : x264 core 157 r2935 545de2f

Encoding settings : cabac=1 / ref=4 / deblock=1:-2:-2 / analyse=0x3:0x133 / me=umh / subme=10 / psy=1 / psy_rd=1.00:0.25 / mixed_ref=1 / me_range=32 / chroma_me=1 / trellis=2 / 8x8dct=1 / cqm=0 / deadzone=6,6 / fast_pskip=1 / chroma_qp_offset=-4 / threads=6 / lookahead_threads=1 / sliced_threads=0 / nr=0 / decimate=0 / interlaced=0 / bluray_compat=0 / constrained_intra=0 / bframes=8 / b_pyramid=2 / b_adapt=2 / b_bias=0 / direct=3 / weightb=1 / open_gop=0 / weightp=2 / keyint=240 / keyint_min=24 / scenecut=40 / intra_refresh=0 / rc_lookahead=60 / rc=2pass / mbtree=1 / bitrate=5500 / ratetol=1.0 / qcomp=0.75 / qpmin=0 / qpmax=69 / qpstep=4 / cplxblur=20.0 / qblur=0.5 / vbv_maxrate=25000 / vbv_bufsize=78125 / nal_hrd=none / filler=0 / ip_ratio=1.10 / aq=3:1.20

Default : Yes

Forced : No

Color range : Limited

Color primaries : BT.709

Transfer characteristics : BT.709

Matrix coefficients : BT.709

Audio

ID : 2

Format : AC-3

Format/Info : Audio Coding 3

Commercial name : Dolby Digital

Codec ID : A_AC3

Duration : 6 min 15 s

Bit rate mode : Constant

Bit rate : 384 kb/s

Channel(s) : 6 channels

Channel layout : L R C LFE Ls Rs

Sampling rate : 48.0 kHz

Frame rate : 31.250 FPS (1536 SPF)

Compression mode : Lossy

Delay relative to video : -5 ms

Stream size : 17.2 MiB (7%)

Language : English

Service kind : Complete Main

Default : Yes

Forced : No

SCREENSHOTS:




Burrow.2020.1080p.WEB-DL.x264Download Torrent Magnet

#Burrow20201080pWEBDLx264