Brian Cox’s Adventures in Spa Full Torrent Magnet Download

Download Torrent Brian Cox’s Adventures in Spa Movie Full in HD Result. Movie Brian Cox’s Adventures in Spa Torrent Download full. Movie Brian Cox’s Adventures in Spa torrent Magnet Download Full. Brian Cox’s Adventures in Spa Full Movie Torrent Download And Magnet Download For your PC And Mobiles. Latest Movie Brian Cox’s Adventures in Spa Download Link In Bottom.

Torrent And Magnet Links Below

Brian Cox’s Adventures in Space and Time S01E01 – Space – How Far Can We Go (1280x720p HD, 50fps, soft Eng subs)

Brian believes we are at the start of a new age of space travel, where space flight is on the verge of becoming routine. In this episode, he explores the latest science and takes a new look at his old films and asks: how far can we go in our exploration of the cosmos? / / Brian begins in Russia’s cosmonaut training facility in the outskirts of Moscow, where he dons a spacesuit to discover what ‘the right stuff’ is and what it might take to carry out maintenance on the International Space Station in low earth orbit. It is an eye-opening experience that reveals just how physically demanding being an astronaut can be. / / He then looks at some of the most extraordinary achievements of space exploration to date. Under the clear sky of the Atlas Mountains, he tells the story of how we started to explore the cosmos from earth. Careful observation of ‘wandering stars’, now known as the planets, initially led our ancestors to believe that Earth, not the sun, was at the centre of our solar system. But as our knowledge of the cosmos grew, so did our appetite to explore; eventually technology made it possible for us to take our first steps towards the stars. In Russia’s Star City, Brian visits the office of Yuri Gagarin, the first man in space. At Cape Kennedy Space Centre he marvels at the enormous Saturn V rocket that launched the first men to the moon. Brian reflects on the difficulties of filming this giant machine, and on his encounters with the extraordinary men who flew in it to the moon. / / Looking to the future, Brian recalls his meeting with aerospace engineer and visionary advocate of Mars exploration Robert Zubrin. He’s credited with inspiring Elon Musk and Jeff Bezos to develop rockets with the aim of making the red planet the next frontier of human space exploration. / / Professor Cox concludes that Mars will be the limit of human space exploration in our lifetime – our bodies can’t withstand the demands of travelling much deeper into the cosmos. To explore further, we must send robots in our place. Brian reveals some of his favourite probes to have uncovered the wonders of our solar system. This includes Voyager 1, whose iconic image of Earth from deep space taught us the true value of exploration: perspective.

First broadcast: 30 May 2021

Duration: 1 hour

Torrent dead? Request reseed at torrentgalaxy.org – or ask at elsonroa at tutanota.com

Media info:-

General

Format : MPEG-4

Format profile : Base Media

Codec ID : isom (isom/iso2/avc1/mp41)

File size : 1.91 GiB

Duration : 59mn 7s

Overall bit rate mode : Variable

Overall bit rate : 4 629 Kbps

Video

ID : 1

Format : AVC

Format/Info : Advanced Video Codec

Format profile : [email protected]
Format settings, CABAC : Yes

Format settings, ReFrames : 4 frames

Codec ID : avc1

Codec ID/Info : Advanced Video Coding

Duration : 59mn 7s

Bit rate : 4 493 Kbps

Width : 1 280 pixels

Height : 720 pixels

Display aspect ratio : 16:9

Frame rate mode : Constant

Frame rate : 50.000 fps

Color space : YUV

Chroma subsampling : 4:2:0

Bit depth : 8 bits

Scan type : Progressive

Bits/(Pixel*Frame) : 0.098

Stream size : 1.86 GiB (97%)

Encoded date : UTC 1904-01-01 00:00:00

Tagged date : UTC 1904-01-01 00:00:00

Color range : Limited

Color primaries : BT.709

Transfer characteristics : BT.709

Matrix coefficients : BT.709

Audio

ID : 2

Format : AAC

Format/Info : Advanced Audio Codec

Format profile : LC

Codec ID : 40

Duration : 59mn 7s

Bit rate mode : Variable

Bit rate : 128 Kbps

Maximum bit rate : 129 Kbps

Channel(s) : 2 channels

Channel positions : Front: L R

Sampling rate : 48.0 KHz

Frame rate : 46.875 fps (1024 spf)

Compression mode : Lossy

Stream size : 54.1 MiB (3%)

Language : English

Brian Cox’s Adventures in SpaDownload Torrent Magnet

#Brian #Coxs #Adventures #Spa