Breaking.News.in.Yuba.County. Full Torrent Magnet Download

Download Torrent Breaking.News.in.Yuba.County. Movie Full in HD Result. Movie Breaking.News.in.Yuba.County. Torrent Download full. Movie Breaking.News.in.Yuba.County. torrent Magnet Download Full. Breaking.News.in.Yuba.County. Full Movie Torrent Download And Magnet Download For your PC And Mobiles. Latest Movie Breaking.News.in.Yuba.County. Download Link In Bottom.

Torrent And Magnet Links Below

https://www.imdb.com/title/tt7737640/

Code:

Video

ID : 1

Format : AVC

Format/Info : Advanced Video Codec

Format profile : [email protected]
Format settings : CABAC / 4 Ref Frames

Format settings, CABAC : Yes

Format settings, Reference frames : 4 frames

Codec ID : V_MPEG4/ISO/AVC

Duration : 1 h 36 min

Bit rate mode : Variable

Bit rate : 6 822 kb/s

Maximum bit rate : 14.0 Mb/s

Width : 1 920 pixels

Height : 1 080 pixels

Display aspect ratio : 16:9

Frame rate mode : Constant

Frame rate : 23.976 (24000/1001) FPS

Color space : YUV

Chroma subsampling : 4:2:0

Bit depth : 8 bits

Scan type : Progressive

Bits/(Pixel*Frame) : 0.137

Stream size : 4.59 GiB (94%)

Default : Yes

Forced : No

Color range : Limited

Color primaries : BT.709

Transfer characteristics : BT.709

Matrix coefficients : BT.709

Audio

ID : 2

Format : E-AC-3

Format/Info : Enhanced AC-3

Commercial name : Dolby Digital Plus

Codec ID : A_EAC3

Duration : 1 h 36 min

Bit rate mode : Constant

Bit rate : 256 kb/s

Channel(s) : 6 channels

Channel layout : L R C LFE Ls Rs

Sampling rate : 48.0 kHz

Frame rate : 31.250 FPS (1536 SPF)

Compression mode : Lossy

Stream size : 176 MiB (4%)

Language : English

Service kind : Complete Main

Default : Yes

Forced : No

Text

ID : 3

Format : UTF-8

Codec ID : S_TEXT/UTF8

Codec ID/Info : UTF-8 Plain Text

Language : English

Default : No

Forced : No

Breaking.News.in.Yuba.County.Download Torrent Magnet

#BreakingNewsinYubaCounty