Breach.2020.BRRip.XviD.B4ND1T Full Torrent Magnet Download

Download Torrent Breach.2020.BRRip.XviD.B4ND1T Movie Full in HD Result. Movie Breach.2020.BRRip.XviD.B4ND1T Torrent Download full. Movie Breach.2020.BRRip.XviD.B4ND1T torrent Magnet Download Full. Breach.2020.BRRip.XviD.B4ND1T Full Movie Torrent Download And Magnet Download For your PC And Mobiles. Latest Movie Breach.2020.BRRip.XviD.B4ND1T Download Link In Bottom.

Torrent And Magnet Links Below

Breach.2020.BRRip.XviD.B4ND1T69

Director: John Suits

Writers: Edward Drake, Corey Large

Stars: Cody Kearsley, Bruce Willis, Rachel Nichols

Plot/Story:

On the cusp of fatherhood, a junior mechanic aboard an interstellar ark to New Earth must outwit a malevolent cosmic terror intent on using the spaceship as a weapon.

General

Complete name : Breach.2020.BRRip.XviD.B4ND1T69.avi

Format : AVI

Format/Info : Audio Video Interleave

File size : 612 MiB

Duration : 1 h 32 min

Overall bit rate : 925 kb/s

Subtitles : Yes…Included(HI)

Video

ID : 0

Format : MPEG-4 Visual

Format profile : Advanced [email protected]
Format settings, BVOP : 2

Format settings, QPel : No

Format settings, GMC : No warppoints

Format settings, Matrix : Default (H.263)

Codec ID : XVID

Codec ID/Hint : XviD

Duration : 1 h 32 min

Bit rate : 784 kb/s

Width : 720 pixels

Height : 304 pixels

Display aspect ratio : 2.35:1

Frame rate : 23.976 (24000/1001) FPS

Color space : YUV

Chroma subsampling : 4:2:0

Bit depth : 8 bits

Scan type : Progressive

Compression mode : Lossy

Bits/(Pixel*Frame) : 0.149

Stream size : 519 MiB (85%)

Writing library : XviD 64

Audio

ID : 1

Format : MPEG Audio

Format version : Version 1

Format profile : Layer 3

Codec ID : 55

Codec ID/Hint : MP3

Duration : 1 h 32 min

Bit rate mode : Constant

Bit rate : 128 kb/s

Channel(s) : 2 channels

Sampling rate : 48.0 kHz

Compression mode : Lossy

Stream size : 84.7 MiB (14%)

Alignment : Aligned on interleaves

Interleave, duration : 24 ms (0.58 video frame)

Screenshots:









Please Seed For As Long As Possible

Or At Least 1:1 Ratio…Thanks

Enjoy Peeps

Breach.2020.BRRip.XviD.B4ND1TDownload Torrent Magnet

#Breach2020BRRipXviDB4ND1T