Boogie.2021.1080p.AMZN.WEBRip Full Torrent Magnet Download

Download Torrent Boogie.2021.1080p.AMZN.WEBRip Movie Full in HD Result. Movie Boogie.2021.1080p.AMZN.WEBRip Torrent Download full. Movie Boogie.2021.1080p.AMZN.WEBRip torrent Magnet Download Full. Boogie.2021.1080p.AMZN.WEBRip Full Movie Torrent Download And Magnet Download For your PC And Mobiles. Latest Movie Boogie.2021.1080p.AMZN.WEBRip Download Link In Bottom.

Torrent And Magnet Links Below

https://www.imdb.com/title/tt10896398/

Coming-of-age story of Alfred “Boogie” Chin, a basketball phenom living in Queens, New York, who dreams of one day playing in the NBA. While his parents pressure him to focus on earning a scholarship to an elite college, Boogie must find a way to navigate a new girlfriend, high school, on-court rivals and the burden of expectation.


Video

ID : 1

Format : AVC

Format/Info : Advanced Video Codec

Format profile : [email protected]
Format settings : CABAC / 4 Ref Frames

Format settings, CABAC : Yes

Format settings, Reference frames : 4 frames

Codec ID : V_MPEG4/ISO/AVC

Duration : 1 h 30 min

Bit rate mode : Constant

Bit rate : 8 417 kb/s

Nominal bit rate : 10 000 kb/s

Width : 1 920 pixels

Height : 800 pixels

Display aspect ratio : 2.40:1

Frame rate mode : Constant

Frame rate : 23.976 (24000/1001) FPS

Color space : YUV

Chroma subsampling : 4:2:0

Bit depth : 8 bits

Scan type : Progressive

Bits/(Pixel*Frame) : 0.229

Stream size : 5.30 GiB (93%)

Language : English

Default : Yes

Forced : No

Color range : Limited

Color primaries : BT.709

Transfer characteristics : BT.709

Matrix coefficients : BT.709

Audio

ID : 2

Format : E-AC-3

Format/Info : Enhanced AC-3

Commercial name : Dolby Digital Plus

Codec ID : A_EAC3

Duration : 1 h 30 min

Bit rate mode : Constant

Bit rate : 640 kb/s

Channel(s) : 6 channels

Channel layout : L R C LFE Ls Rs

Sampling rate : 48.0 kHz

Frame rate : 31.250 FPS (1536 SPF)

Compression mode : Lossy

Stream size : 413 MiB (7%)

Language : English

Service kind : Complete Main

Default : Yes

Forced : No

Text

ID : 3

Format : UTF-8

Codec ID : S_TEXT/UTF8

Codec ID/Info : UTF-8 Plain Text

Duration : 1 h 22 min

Bit rate : 66 b/s

Count of elements : 1377

Stream size : 40.4 KiB (0%)

Language : English

Default : Yes

Forced : No

Boogie.2021.1080p.AMZN.WEBRipDownload Torrent Magnet

#Boogie20211080pAMZNWEBRip