Body Cam (2020)) 720p H264 Ac Full Torrent Magnet Download

Download Torrent Body Cam (2020)) 720p H264 Ac Movie Full in HD Result. Movie Body Cam (2020)) 720p H264 Ac Torrent Download full. Movie Body Cam (2020)) 720p H264 Ac torrent Magnet Download Full. Body Cam (2020)) 720p H264 Ac Full Movie Torrent Download And Magnet Download For your PC And Mobiles. Latest Movie Body Cam (2020)) 720p H264 Ac Download Link In Bottom.

Torrent And Magnet Links Below

Body Cam (2020)) 720p H264 Ac3 5.1 Ita Eng Sub Ita Eng-MIRCrew


NO FOUND ONLY ORIGINAL RELEASE

My release is always in double track audio italian and Original audio

for select it use VLC or dvd player home

not use wmp

Body Cam (2020)

Quality MIRCrew on HD 720p da 1,8 gb

Titolo originale Lost in Space

Lingua originale inglese

Paese di produzione Stati Uniti d’America

Anno 1998

Durata 130 min

Genere azione, avventura, fantascienza

Regia Stephen Hopkins

Soggetto Irwin Allen

Sceneggiatura Akiva Goldsman

Fotografia Peter Levy

Montaggio Ray Lovejoy

Effetti speciali Nick Allder, Carmila Gittens, Robert Schofield

Musiche Bruce Broughton, Ken Jordan, Scott Kirkland

Scenografia Norman Garwood

William Hurt: Professor John Robinson

Mimi Rogers: Maureen Robinson

Lacey Chabert: Penny Robinson

Heather Graham: Judy Robinson

Jack Johnson: Will Robinson

Gary Oldman: Dottor Zachary Smith

Matt LeBlanc: Maggiore Don West

Jared Harris: Will Robinson da grande

June Lockhart: Principal Cartwright

Quando un controllo di routine si traduce nella morte inspiegabile e raccapricciante del suo collega, una poliziotta realizza, attraverso le riprese delle telecamere di sicurezza dell’incidente che si tratta di qualcosa di insolito e fuori dal normale. Mentre gli attacchi aumentano, cerca di capire la forza soprannaturale dietro queste uccisioni

When a routine traffic stop results in the unexplained, grisly death of her colleague, a cop realizes footage of the incident will play for her eyes only. As the attacks mount, she races to understand the supernatural force behind them.

General

Complete name : Body Cam (2020).720p.h264.ita.eng-MIRCrewBody Cam (2020).720p.h264.ita.eng-MIRCrew.mkv

Format : Matroska

Format version : Version 2

File size : 1.80 GiB

Duration : 1h 36mn

Overall bit rate : 2 659 Kbps

Movie name : MIRCrew

Encoded date : UTC 2020-08-29 08:13:20

Writing application : Lavf54.63.100

Writing library : Lavf54.63.100

COMMENT : MIRCrew

Video

ID : 1

Format : AVC

Format/Info : Advanced Video Codec

Format profile : [email protected]
Format settings, CABAC : Yes

Format settings, ReFrames : 2 frames

Codec ID : V_MPEG4/ISO/AVC

Duration : 1h 36mn

Bit rate : 1 900 Kbps

Width : 1 280 pixels

Height : 528 pixels

Display aspect ratio : 2.40:1

Frame rate mode : Variable

Frame rate : 23.976 fps

Color space : YUV

Chroma subsampling : 4:2:0

Bit depth : 8 bits

Scan type : Progressive

Bits/(Pixel*Frame) : 0.117

Stream size : 1.24 GiB (69%)

Writing library : x264 core 130 r2273

Encoding settings : cabac=1 / ref=2 / deblock=1:-1:-1 / analyse=0x1:0x131 / me=hex / subme=7 / psy=1 / psy_rd=1.00:0.10 / mixed_ref=0 / me_range=16 / chroma_me=1 / trellis=1 / 8x8dct=0 / cqm=0 / deadzone=21,11 / fast_pskip=1 / chroma_qp_offset=-3 / threads=9 / lookahead_threads=1 / sliced_threads=0 / nr=0 / decimate=1 / interlaced=0 / bluray_compat=0 / constrained_intra=0 / bframes=3 / b_pyramid=0 / b_adapt=1 / b_bias=0 / direct=3 / weightb=1 / open_gop=0 / weightp=2 / keyint=230 / keyint_min=23 / scenecut=40 / intra_refresh=0 / rc_lookahead=40 / rc=abr / mbtree=1 / bitrate=1900 / ratetol=1.0 / qcomp=0.60 / qpmin=10 / qpmax=69 / qpstep=4 / vbv_maxrate=24000 / vbv_bufsize=24000 / nal_hrd=none / ip_ratio=1.40 / aq=1:1.00

Language : Italian

Default : Yes

Forced : No

DURATION : 01:36:39.044000000

NUMBER_OF_FRAMES : 139038

NUMBER_OF_BYTES : 3311782851

_STATISTICS_WRITING_APP : mkvmerge v45.0.0 (‘Heaven in Pennies’) 64-bit

_STATISTICS_WRITING_DATE_UTC : 2020-08-28 20:39:56

_STATISTICS_TAGS : BPS DURATION NUMBER_OF_FRAMES NUMBER_OF_BYTES

Audio #1

ID : 2

Format : AC-3

Format/Info : Audio Coding 3

Mode extension : CM (complete main)

Codec ID : A_AC3

Duration : 1h 36mn

Bit rate mode : Constant

Bit rate : 384 Kbps

Channel(s) : 6 channels

Channel positions : Front: L C R, Side: L R, LFE

Sampling rate : 48.0 KHz

Bit depth : 16 bits

Compression mode : Lossy

Delay relative to video : 1mn 5s

Stream size : 266 MiB (14%)

Title : Ita Ac3 5.1

Language : Italian

Default : Yes

Forced : No

DURATION : 01:36:40.256000000

NUMBER_OF_FRAMES : 181258

NUMBER_OF_BYTES : 185608192

_STATISTICS_WRITING_APP : mkvmerge v45.0.0 (‘Heaven in Pennies’) 64-bit

_STATISTICS_WRITING_DATE_UTC : 2020-08-28 20:39:56

_STATISTICS_TAGS : BPS DURATION NUMBER_OF_FRAMES NUMBER_OF_BYTES

Audio #2

ID : 3

Format : AC-3

Format/Info : Audio Coding 3

Mode extension : CM (complete main)

Codec ID : A_AC3

Duration : 1h 36mn

Bit rate mode : Constant

Bit rate : 384 Kbps

Channel(s) : 6 channels

Channel positions : Front: L C R, Side: L R, LFE

Sampling rate : 48.0 KHz

Bit depth : 16 bits

Compression mode : Lossy

Delay relative to video : 1mn 5s

Stream size : 266 MiB (14%)

Language : English

Default : No

Forced : No

DURATION : 01:36:39.072000000

NUMBER_OF_FRAMES : 181221

NUMBER_OF_BYTES : 463925760

_STATISTICS_WRITING_APP : mkvmerge v45.0.0 (‘Heaven in Pennies’) 64-bit

_STATISTICS_WRITING_DATE_UTC : 2020-08-28 20:39:56

_STATISTICS_TAGS : BPS DURATION NUMBER_OF_FRAMES NUMBER_OF_BYTES

Body Cam (2020)) 720p H264 AcDownload Torrent Magnet

#Body #Cam #720p #H264