Black.Sheep.1996.1080p.BluRay Full Torrent Magnet Download

Download Torrent Black.Sheep.1996.1080p.BluRay Movie Full in HD Result. Movie Black.Sheep.1996.1080p.BluRay Torrent Download full. Movie Black.Sheep.1996.1080p.BluRay torrent Magnet Download Full. Black.Sheep.1996.1080p.BluRay Full Movie Torrent Download And Magnet Download For your PC And Mobiles. Latest Movie Black.Sheep.1996.1080p.BluRay Download Link In Bottom.

Torrent And Magnet Links Below









Code:

Format : Matroska

Format version : Version 4

File size : 4.14 GiB

Duration : 1 h 26 min

Overall bit rate : 6 849 kb/s

Video
Format : HEVC

Format/Info : High Efficiency Video Coding

Format profile : Main [email protected]@Main

Codec ID : V_MPEGH/ISO/HEVC

Duration : 1 h 26 min

Bit rate : 6 323 kb/s

Width : 1 920 pixels

Height : 1 080 pixels

Display aspect ratio : 16:9

Frame rate mode : Constant

Frame rate : 23.976 (24000/1001) FPS

Color space : YUV

Chroma subsampling : 4:2:0

Bit depth : 10 bits

Bits/(Pixel*Frame) : 0.127

Stream size : 3.82 GiB (92%)

Writing library : x265 3.0_Au+14-c7e5878bdd31:[Windows][GCC 8.3.0][64 bit] 10bit

Encoding settings : cpuid=1111039 / frame-threads=4 / numa-pools=16 / wpp / no-pmode / no-pme / no-psnr / no-ssim / log-level=2 / input-csp=1 / input-res=1920×1080 / interlace=0 / total-frames=124368 / level-idc=0 / high-tier=1 / uhd-bd=0 / ref=4 / no-allow-non-conformance / no-repeat-headers / annexb / no-aud / no-hrd / info / hash=0 / no-temporal-layers / open-gop / min-keyint=23 / keyint=250 / gop-lookahead=0 / bframes=4 / b-adapt=2 / b-pyramid / bframe-bias=0 / rc-lookahead=25 / lookahead-slices=4 / scenecut=40 / radl=0 / no-splice / no-intra-refresh / ctu=64 / min-cu-size=8 / rect / no-amp / max-tu-size=32 / tu-inter-depth=1 / tu-intra-depth=1 / limit-tu=0 / rdoq-level=2 / dynamic-rd=0.00 / no-ssim-rd / signhide / no-tskip / nr-intra=0 / nr-inter=0 / no-constrained-intra / strong-intra-smoothing / max-merge=3 / limit-refs=3 / limit-modes / me=3 / subme=3 / merange=57 / temporal-mvp / weightp / no-weightb / no-analyze-src-pics / deblock=-3:-3 / sao / no-sao-non-deblock / rd=4 / no-early-skip / rskip / no-fast-intra / no-tskip-fast / no-cu-lossless / no-b-intra / no-splitrd-skip / rdpenalty=0 / psy-rd=2.00 / psy-rdoq=1.00 / no-rd-refine / no-lossless / cbqpoffs=0 / crqpoffs=0 / rc=crf / crf=21.0 / qcomp=0.60 / qpstep=4 / stats-write=0 / stats-read=0 / ipratio=1.40 / pbratio=1.30 / aq-mode=3 / aq-strength=1.00 / cutree / zone-count=0 / no-strict-cbr / qg-size=32 / no-rc-grain / qpmax=69 / qpmin=0 / no-const-vbv / sar=0 / overscan=0 / videoformat=5 / range=0 / colorprim=2 / transfer=2 / colormatrix=2 / chromaloc=0 / display-window=0 / max-cll=0,0 / min-luma=0 / max-luma=1023 / log2-max-poc-lsb=8 / vui-timing-info / vui-hrd-info / slices=1 / no-opt-qp-pps / no-opt-ref-list-length-pps / no-multi-pass-opt-rps / scenecut-bias=0.05 / no-opt-cu-delta-qp / no-aq-motion / no-hdr / no-hdr-opt / no-dhdr10-opt / no-idr-recovery-sei / analysis-reuse-level=5 / scale-factor=0 / refine-intra=0 / refine-inter=0 / refine-mv=0 / refine-ctu-distortion=0 / no-limit-sao / ctu-info=0 / no-lowpass-dct / refine-analysis-type=0 / copy-pic=1 / max-ausize-factor=1.0 / no-dynamic-refine / no-single-sei / no-hevc-aq / no-svt / qp-adaptation-range=1.00

Default : Yes

Forced : No

Audio
Format : E-AC-3

Format/Info : Enhanced AC-3

Commercial name : Dolby Digital Plus

Codec ID : A_EAC3

Duration : 1 h 26 min

Bit rate mode : Constant

Bit rate : 512 kb/s

Channel(s) : 5 channels

Channel layout : L R C Ls Rs

Sampling rate : 48.0 kHz

Frame rate : 31.250 FPS (1536 SPF)

Compression mode : Lossy

Stream size : 317 MiB (7%)

Title : E-AC-3

Language : English

Service kind : Complete Main

Default : Yes

Forced : No

Text
Format : PGS

Muxing mode : zlib

Codec ID : S_HDMV/PGS

Codec ID/Info : Picture based subtitle format used on BDs/HD-DVDs

Duration : 1 h 21 min

Bit rate : 41.4 kb/s

Count of elements : 7800

Stream size : 24.1 MiB (1%)

Title : English

Language : English

Default : Yes

Forced : No

Menu
00:00:00.000 : :Глава 1

00:05:02.343 : :Глава 2

00:10:11.736 : :Глава 3

00:14:32.246 : :Глава 4

00:17:50.319 : :Глава 5

00:23:13.849 : :Глава 6

00:27:45.830 : :Глава 7

00:34:22.435 : :Глава 8

00:38:23.134 : :Глава 9

00:40:15.830 : :Глава 10

00:42:03.646 : :Глава 11

00:50:24.646 : :Глава 12

00:57:34.325 : :Глава 13

01:00:00.013 : :Глава 14

01:05:13.576 : :Глава 15

01:11:50.305 : :Глава 16

01:20:46.925 : :Глава 17

Black.Sheep.1996.1080p.BluRayDownload Torrent Magnet

#BlackSheep19961080pBluRay