Black Mask (1996) Extended 10 Full Torrent Magnet Download

Download Torrent Black Mask (1996) Extended 10 Movie Full in HD Result. Movie Black Mask (1996) Extended 10 Torrent Download full. Movie Black Mask (1996) Extended 10 torrent Magnet Download Full. Black Mask (1996) Extended 10 Full Movie Torrent Download And Magnet Download For your PC And Mobiles. Latest Movie Black Mask (1996) Extended 10 Download Link In Bottom.

Torrent And Magnet Links Below

Black Mask (1996) Extended 1080p GER 10bit Bluray x265 HEVC [Org DD 2.0 Hindi + DD 2.0 Chinese] ESub ~ TombDoc

Code:

Format                                   : Matroska

Format version                           : Version 4

File size                                : 3.27 GiB

Duration                                 : 1 h 41 min

Overall bit rate                         : 4 613 kb/s

Video

ID                                       : 1

Format                                   : HEVC

Format/Info                              : High Efficiency Video Coding

Format profile                           : Main [email protected]@Main

Codec ID                                 : V_MPEGH/ISO/HEVC

Duration                                 : 1 h 41 min

Bit rate                                 : 3 999 kb/s

Width                                    : 1 920 pixels

Height                                   : 1 080 pixels

Display aspect ratio                     : 16:9

Frame rate mode                          : Constant

Frame rate                               : 23.976 (24000/1001) FPS

Color space                              : YUV

Chroma subsampling                       : 4:2:0

Bit depth                                : 10 bits

Bits/(Pixel*Frame)                       : 0.080

Stream size                              : 2.83 GiB (87%)

Writing library                          : x265 3.3+2-gbe2d82093:[Windows][GCC 9.2.0][64 bit] 10bit

Encoding settings                        : cpuid=1111039 / frame-threads=4 / numa-pools=16 / wpp / no-pmode / no-pme / no-psnr / no-ssim / log-level=2 / input-csp=1 / input-res=1920×1080 / interlace=0 / total-frames=145967 / level-idc=0 / high-tier=1 / uhd-bd=0 / ref=5 / no-allow-non-conformance / no-repeat-headers / annexb / no-aud / no-hrd / info / hash=0 / no-temporal-layers / open-gop / min-keyint=23 / keyint=250 / gop-lookahead=0 / bframes=8 / b-adapt=2 / b-pyramid / bframe-bias=0 / rc-lookahead=100 / lookahead-slices=4 / scenecut=40 / hist-scenecut=0 / radl=0 / no-splice / no-intra-refresh / ctu=64 / min-cu-size=8 / rect / amp / max-tu-size=32 / tu-inter-depth=1 / tu-intra-depth=1 / limit-tu=0 / rdoq-level=2 / dynamic-rd=0.00 / ssim-rd / signhide / no-tskip / nr-intra=0 / nr-inter=0 / no-constrained-intra / strong-intra-smoothing / max-merge=5 / limit-refs=3 / limit-modes / me=3 / subme=5 / merange=57 / temporal-mvp / no-frame-dup / no-hme / weightp / no-weightb / no-analyze-src-pics / deblock=0:0 / sao / no-sao-non-deblock / rd=4 / selective-sao=4 / no-early-skip / rskip / no-fast-intra / no-tskip-fast / no-cu-lossless / no-b-intra / no-splitrd-skip / rdpenalty=0 / psy-rd=0.00 / psy-rdoq=1.50 / no-rd-refine / no-lossless / cbqpoffs=0 / crqpoffs=0 / rc=abr / bitrate=4000 / qcomp=0.60 / qpstep=4 / stats-write=0 / stats-read=2 / cplxblur=20.0 / qblur=0.5 / ipratio=1.40 / pbratio=1.30 / aq-mode=4 / aq-strength=1.00 / cutree / zone-count=0 / no-strict-cbr / qg-size=32 / rc-grain / qpmax=69 / qpmin=0 / no-const-vbv / sar=0 / overscan=0 / videoformat=5 / range=0 / colorprim=2 / transfer=2 / colormatrix=2 / chromaloc=0 / display-window=0 / cll=0,0 / min-luma=0 / max-luma=1023 / log2-max-poc-lsb=8 / vui-timing-info / vui-hrd-info / slices=1 / no-opt-qp-pps / no-opt-ref-list-length-pps / no-multi-pass-opt-rps / scenecut-bias=0.05 / hist-threshold=0.01 / no-opt-cu-delta-qp / aq-motion / no-hdr10 / no-hdr10-opt / no-dhdr10-opt / no-idr-recovery-sei / analysis-reuse-level=0 / analysis-save-reuse-level=0 / analysis-load-reuse-level=0 / scale-factor=0 / refine-intra=0 / refine-inter=0 / refine-mv=1 / refine-ctu-distortion=0 / no-limit-sao / ctu-info=0 / no-lowpass-dct / refine-analysis-type=0 / copy-pic=1 / max-ausize-factor=1.0 / no-dynamic-refine / no-single-sei / hevc-aq / no-svt / no-field / qp-adaptation-range=1.00 / no-scenecut-aware-qpconformance-window-offsets / right=0 / bottom=0

Default                                  : Yes

Forced                                   : No

Audio #1

ID                                       : 2

Format                                   : AC-3

Format/Info                              : Audio Coding 3

Commercial name                          : Dolby Digital

Codec ID                                 : A_AC3

Duration                                 : 1 h 41 min

Bit rate mode                            : Constant

Bit rate                                 : 224 kb/s

Channel(s)                               : 2 channels

Channel layout                           : L R

Sampling rate                            : 48.0 kHz

Frame rate                               : 31.250 FPS (1536 SPF)

Compression mode                         : Lossy

Stream size                              : 163 MiB (5%)

Title                                    : Org Ext. Z5 DD 2.0 224Kbps ~ TombDoc

Language                                 : Hindi

Service kind                             : Complete Main

Default                                  : Yes

Forced                                   : Yes

Audio #2

ID                                       : 3

Format                                   : AC-3

Format/Info                              : Audio Coding 3

Commercial name                          : Dolby Digital

Codec ID                                 : A_AC3

Duration                                 : 1 h 41 min

Bit rate mode                            : Constant

Bit rate                                 : 384 kb/s

Channel(s)                               : 2 channels

Channel layout                           : L R

Sampling rate                            : 48.0 kHz

Frame rate                               : 31.250 FPS (1536 SPF)

Compression mode                         : Lossy

Stream size                              : 279 MiB (8%)

Title                                    : DD 2.0 Chinese

Language                                 : Chinese

Service kind                             : Complete Main

Default                                  : No

Forced                                   : No

Text

ID                                       : 4

Format                                   : PGS

Muxing mode                              : zlib

Codec ID                                 : S_HDMV/PGS

Codec ID/Info                            : Picture based subtitle format used on BDs/HD-DVDs

Duration                                 : 1 h 39 min

Bit rate                                 : 17.4 kb/s

Count of elements                        : 2203

Stream size                              : 12.4 MiB (0%)

Title                                    : Eng BD-PGS

Language                                 : English

Default                                  : No

Forced                                   : No

Menu

00:00:00.000                             : en:Chapter 01

00:16:59.685                             : en:Chapter 02

00:28:49.895                             : en:Chapter 03

00:45:22.720                             : en:Chapter 04

01:07:18.284                             : en:Chapter 05

01:25:47.017                             : en:Chapter 06

Code:

Source: This is the 4-Disk Limited Edition from The Vengeance Pack.

Black Mask 1996 1080p GER Blu-ray AVC DTS-HD MA 5.1 (2xBD50 2xDVD9)

Extended Hindi Audio Synced By ReaperZa {Thanks}

– 4 Cuts of the film:

-Hong Kong Version 99 mins.

-International Version (USA version but with more violence intact):

Running Time 86 mins.

-TVP’s Version* (German Version with more nudity and violence) :

(Contains SD inserts)

Running Time approx. 88 mins.

-Extended Version* (Contains all footage from every version!!!):

(Contains SD inserts)

Running Time 101 mins.

Black Mask (1996) Extended 10Download Torrent Magnet

#Black #Mask #Extended