Black Diamond (2021) Hoichoi Full Torrent Magnet Download

Download Torrent Black Diamond (2021) Hoichoi Movie Full in HD Result. Movie Black Diamond (2021) Hoichoi Torrent Download full. Movie Black Diamond (2021) Hoichoi torrent Magnet Download Full. Black Diamond (2021) Hoichoi Full Movie Torrent Download And Magnet Download For your PC And Mobiles. Latest Movie Black Diamond (2021) Hoichoi Download Link In Bottom.

Torrent And Magnet Links Below

Black Diamond [Nokol Heere]:

It is a crime drama directed by Aritra Sen and Rohan Ghose.

Cast: Tuhina Das, Indrashish Roy, Rajnandini Paul, Shoumo Banerjee.

Format : Matroska
Format version : Version 4
File size : 1.40 GiB
Duration : 3 h 8 min
Overall bit rate : 1 059 kb/s

Video
ID : 1
Format : AVC
Format/Info : Advanced Video Codec
Format profile : [email protected]
Format settings : CABAC / 4 Ref Frames
Format settings, CABAC : Yes
Format settings, Reference frames : 4 frames
Codec ID : V_MPEG4/ISO/AVC
Duration : 3 h 8 min
Bit rate : 840 kb/s
Width : 1 280 pixels
Height : 720 pixels

Audio #1
ID : 2
Format : AAC LC
Format/Info : Advanced Audio Codec Low Complexity
Codec ID : A_AAC-2
Duration : 3 h 8 min
Bit rate : 128 kb/s
Channel(s) : 2 channels
Channel layout : L R
Sampling rate : 44.1 kHz
Frame rate : 43.066 FPS (1024 SPF)
Compression mode : Lossy
Stream size : 172 MiB (12%)
Language : Hindi
Default : Yes
Forced : No

Audio #2
ID : 3
Format : AAC LC
Format/Info : Advanced Audio Codec Low Complexity
Codec ID : A_AAC-2
Duration : 3 h 8 min
Bit rate : 93.6 kb/s
Channel(s) : 2 channels
Channel layout : L R
Sampling rate : 44.1 kHz
Frame rate : 43.066 FPS (1024 SPF)
Compression mode : Lossy
Delay relative to video : -80 ms
Stream size : 126 MiB (9%)
Language : Bengali
Default : No
Forced : No

Text
ID : 4
Format : UTF-8
Codec ID : S_TEXT/UTF8
Codec ID/Info : UTF-8 Plain Text
Duration : 3 h 6 min
Bit rate : 61 b/s
Count of elements : 2809
Stream size : 83.8 KiB (0%)
Language : English

Black Diamond (2021) Hoichoi Download Torrent Magnet

#Black #Diamond #Hoichoi