Big Nothing 2006 1080p BLURAY Full Torrent Magnet Download

Download Torrent Big Nothing 2006 1080p BLURAY Movie Full in HD Result. Movie Big Nothing 2006 1080p BLURAY Torrent Download full. Movie Big Nothing 2006 1080p BLURAY torrent Magnet Download Full. Big Nothing 2006 1080p BLURAY Full Movie Torrent Download And Magnet Download For your PC And Mobiles. Latest Movie Big Nothing 2006 1080p BLURAY Download Link In Bottom.

Torrent And Magnet Links Below

Big Nothing 2006 1080p BLURAY REMUX AVC DTS-HD M.A. 4.1 – iCMAL [TGx]

Parents Guide

Jump to: Certification Sex & Nudity (1) Violence & Gore (1) Profanity (1) Alcohol, Drugs & Smoking (1) Frightening & Intense Scenes (2) Spoilers (1)

Certification

MPAA Rated R for violence, language and a scene of sexuality

Certification
Australia:MA15+ (2007) Finland:K-13 Germany:16 Ireland:15A Ireland:18 Netherlands:12 Portugal:M/12 United Kingdom:15 United States:R

A frustrated, unemployed professor joins forces with a scammer and a friend of his in a blackmailing scheme.

Director: Jean-Baptiste Andrea

Writers: Jean-Baptiste Andrea, William Rosenfeld (as Billy Asher)

Stars: David Schwimmer, Simon Pegg, Alice Eve

Storyline

Charlie is an ex-professor turned reluctant call center employee who gets fired on the first day. Distraught at being unable to provide for his daughter Emily and wife Penelope, he accepts when Gus, an aspiring scam artist who presents Charlie with a seemingly snag-free plan to make some cash. The plan is to blackmail Reverend Smalls, a man of the cloth, who’s frequently turned up in the company database of visitors to illegal porn sites. Gus plans to extort Reverend Smalls, with the intention of publicly exposing his secret shame should he refuse, thus potentially destroying the man’s career. Normally cautious, Charlie is keen on participating in this scam, confident that the money he’ll make from the scam will finally help turn things around for him and his family. Joined by one-time teenage pageant queen Josie McBroom, Gus’s ex, the plan goes ahead, but it all goes wrong as Reverend Smalls dies thanks to this trio, with this only being the start of their troubles.

DownloadsBig Nothing 2006 1080p BLURAY REMUX AVC DTS-HD M.A. 4.1 – iCMAL [TGx]Big Nothing 2006 1080p BLURAY AVC DTS-HD M.A. 4.1 – iCMAL.mkv

Format : Matroska

Format version : Version 4

File size : 14.4 GiB

Duration : 1 h 25 min

Overall bit rate mode : Variable

Overall bit rate : 24.0 Mb/s

Movie name : Big Nothing 2006 1080p BLURAY AVC DTS-HD M.A. 4.1 – iCMAL

Encoded date : UTC 2021-01-31 21:03:08

Writing application : mkvmerge v10.0.0 (‘To Drown In You’) 64bit

Writing library : libebml v1.3.4 + libmatroska v1.4.5

Video

ID : 1

Format : AVC

Format/Info : Advanced Video Codec

Format profile : [email protected]
Format settings : CABAC / 4 Ref Frames

Format settings, CABAC : Yes

Format settings, Reference frames : 4 frames

Codec ID : V_MPEG4/ISO/AVC

Duration : 1 h 25 min

Bit rate mode : Variable

Bit rate : 20.0 Mb/s

Maximum bit rate : 28.0 Mb/s

Width : 1 920 pixels

Height : 1 080 pixels

Display aspect ratio : 16:9

Frame rate mode : Constant

Frame rate : 23.976 (24000/1001) FPS

Standard : NTSC

Color space : YUV

Chroma subsampling : 4:2:0

Bit depth : 8 bits

Scan type : Progressive

Bits/(Pixel*Frame) : 0.402

Stream size : 12.0 GiB (83%)

Title : REMUX BY iCMAL

Default : Yes

Forced : No

Color range : Limited

Color primaries : BT.709

Transfer characteristics : BT.709

Matrix coefficients : BT.709

Audio

ID : 2

Format : DTS XLL

Format/Info : Digital Theater Systems

Commercial name : DTS-HD Master Audio

Codec ID : A_DTS

Duration : 1 h 25 min

Bit rate mode : Variable

Bit rate : 3 981 kb/s

Channel(s) : 6 channels

Channel layout : C L R Ls Rs LFE

Sampling rate : 48.0 kHz

Frame rate : 93.750 FPS (512 SPF)

Bit depth : 24 bits

Compression mode : Lossless

Stream size : 2.38 GiB (17%)

Title : REMUX BY iCMAL

Language : English

Default : Yes

Forced : No

Big Nothing 2006 1080p BLURAYDownload Torrent Magnet

#Big #1080p #BLURAY