Berserk.The.Golden.Age.Arc.3. Full Torrent Magnet Download

Download Torrent Berserk.The.Golden.Age.Arc.3. Movie Full in HD Result. Movie Berserk.The.Golden.Age.Arc.3. Torrent Download full. Movie Berserk.The.Golden.Age.Arc.3. torrent Magnet Download Full. Berserk.The.Golden.Age.Arc.3. Full Movie Torrent Download And Magnet Download For your PC And Mobiles. Latest Movie Berserk.The.Golden.Age.Arc.3. Download Link In Bottom.

Torrent And Magnet Links Below

[INFO]

Director: Toshiyuki Kubooka

Subject: Kentaro Miura – (manga)

Screenplay: Ichirô OhkôChi

Music: Shirô Sagisu

Other titles: Berserk: The Golden Age Arc 3 – Descent

Berserk – Das goldene Zeitalter III

Berserk: The Advent

Berserk Ôgon Jidai-Hen III: Kôrin

Duration: 95 ‘

Color: C

Genre: ANIMATION, FANTASY, ADVENTURE

Specifications: (2K), 35MM / D-CINEMA (1: 2.35)

Taken from: Kentaro Miura’s manga of the same name

Production: STUDIO 4 ° C, OLTRE C., LUCENT PICTURES ENTERTAINMENT

Distribution: KOCH MEDIA (2015)

Forbidden 14

Release date 19 May 2015

[TRAMA]

It has been a year since Guts and Griffith separated and Griffith lies in jail. The Hawks put in place a rescue plan to free him, but one night they are attacked by a group of assassins. When all seems to be lost, Guts reappears. together with him, the Band of Hawks will find the strength to carry out their mission …

[SCREENSHOT]



[REPORT]

Code:

Video

ID                                       : 1

Format                                   : AVC

Format/Info                              : Advanced Video Codec

Format profile                           : [email protected]
Format settings                          : CABAC / 6 Ref Frames

Format settings, CABAC                   : Yes

Format settings, Reference frames        : 6 frames

Codec ID                                 : avc1

Codec ID/Info                            : Advanced Video Coding

Duration                                 : 1 h 47 min

Bit rate                                 : 3 384 kb/s

Width                                    : 1 918 pixels

Height                                   : 814 pixels

Display aspect ratio                     : 2.35:1

Frame rate mode                          : Constant

Frame rate                               : 23.976 (24000/1001) FPS

Color space                              : YUV

Chroma subsampling                       : 4:2:0

Bit depth                                : 8 bits

Scan type                                : Progressive

Bits/(Pixel*Frame)                       : 0.090

Stream size                              : 2.54 GiB (89%)

Writing library                          : x264 core 148 r2795 aaa9aa8

Encoding settings                        : cabac=1 / ref=6 / deblock=1:1:1 / analyse=0x3:0x113 / me=hex / subme=7 / psy=1 / psy_rd=0.40:0.00 / mixed_ref=1 / me_range=16 / chroma_me=1 / trellis=1 / 8x8dct=1 / cqm=0 / deadzone=21,11 / fast_pskip=1 / chroma_qp_offset=-2 / threads=12 / lookahead_threads=2 / sliced_threads=0 / nr=0 / decimate=1 / interlaced=0 / bluray_compat=0 / constrained_intra=0 / bframes=5 / b_pyramid=2 / b_adapt=1 / b_bias=0 / direct=1 / weightb=1 / open_gop=0 / weightp=2 / keyint=250 / keyint_min=23 / scenecut=40 / intra_refresh=0 / rc_lookahead=40 / rc=crf / mbtree=1 / crf=15.0 / qcomp=0.60 / qpmin=0 / qpmax=69 / qpstep=4 / ip_ratio=1.40 / aq=1:0.60

Language                                 : Japanese

Menus                                    : 4

Codec configuration box                  : avcC

Audio #1

ID                                       : 2

Format                                   : AAC LC

Format/Info                              : Advanced Audio Codec Low Complexity

Codec ID                                 : mp4a-40-2

Duration                                 : 1 h 47 min

Bit rate mode                            : Constant

Bit rate                                 : 197 kb/s

Channel(s)                               : 6 channels

Channel layout                           : C L R Ls Rs LFE

Sampling rate                            : 48.0 kHz

Frame rate                               : 46.875 FPS (1024 SPF)

Compression mode                         : Lossy

Stream size                              : 152 MiB (5%)

Title                                    : Audio

Language                                 : Japanese

Default                                  : Yes

Alternate group                          : 1

Menus                                    : 4

Audio #2

ID                                       : 3

Format                                   : AAC LC

Format/Info                              : Advanced Audio Codec Low Complexity

Codec ID                                 : mp4a-40-2

Duration                                 : 1 h 47 min

Bit rate mode                            : Constant

Bit rate                                 : 197 kb/s

Channel(s)                               : 6 channels

Channel layout                           : C L R Ls Rs LFE

Sampling rate                            : 48.0 kHz

Frame rate                               : 46.875 FPS (1024 SPF)

Compression mode                         : Lossy

Stream size                              : 152 MiB (5%)

Title                                    : Audio

Language                                 : English

Default                                  : No

Alternate group                          : 1

Menus                                    : 4

Berserk.The.Golden.Age.Arc.3.Download Torrent Magnet

#BerserkTheGoldenAgeArc3