Belphégor Le fantôme du Louvr Full Torrent Magnet Download

Download Torrent Belphégor Le fantôme du Louvr Movie Full in HD Result. Movie Belphégor Le fantôme du Louvr Torrent Download full. Movie Belphégor Le fantôme du Louvr torrent Magnet Download Full. Belphégor Le fantôme du Louvr Full Movie Torrent Download And Magnet Download For your PC And Mobiles. Latest Movie Belphégor Le fantôme du Louvr Download Link In Bottom.

Torrent And Magnet Links Below

IMDB

Code:


General

Complete name : Belphégor.Le.fantôme.du.Louvre.(2001).BluRay.Remux.1080p.DTS.[Borsalino].EN.srt

Format : SubRip

File size : 66.3 KiB

Text

Format : SubRip

Compression mode : Lossless

General

Complete name : Belphégor.Le.fantôme.du.Louvre.(2001).BluRay.Remux.1080p.DTS.[Borsalino].mkv

Format : Matroska

Format version : Version 4

File size : 15.9 GiB

Duration : 1 h 36 min

Overall bit rate mode : Variable

Overall bit rate : 23.6 Mb/s

Movie name : Belphégor.Le.fantôme.du.Louvre.(2001).BluRay.Remux.1080p.DTS.[Borsalino]
Writing application : mkvmerge v56.1.0 (‘My Friend’) 64-bit

Writing library : libebml v1.4.2 + libmatroska v1.6.4

Video

ID : 1

Format : AVC

Format/Info : Advanced Video Codec

Format profile : [email protected]
Format settings : CABAC / 2 Ref Frames

Format settings, CABAC : Yes

Format settings, Reference frames : 2 frames

Format settings, GOP : M=3, N=24

Codec ID : V_MPEG4/ISO/AVC

Duration : 1 h 36 min

Bit rate mode : Variable

Bit rate : 21.6 Mb/s

Maximum bit rate : 40.0 Mb/s

Width : 1 920 pixels

Height : 1 080 pixels

Display aspect ratio : 16:9

Frame rate mode : Constant

Frame rate : 23.976 (24000/1001) FPS

Color space : YUV

Chroma subsampling : 4:2:0

Bit depth : 8 bits

Scan type : Progressive

Bits/(Pixel*Frame) : 0.435

Stream size : 14.6 GiB (92%)

Title : French

Language : French

Default : Yes

Forced : No

Audio

ID : 2

Format : DTS XLL

Format/Info : Digital Theater Systems

Commercial name : DTS-HD Master Audio

Codec ID : A_DTS

Duration : 1 h 36 min

Bit rate mode : Variable

Bit rate : 2 000 kb/s

Channel(s) : 6 channels

Channel layout : C L R Ls Rs LFE

Sampling rate : 48.0 kHz

Frame rate : 93.750 FPS (512 SPF)

Bit depth : 16 bits

Compression mode : Lossless

Stream size : 1.35 GiB (8%)

Title : French

Language : French

Default : No

Forced : No

Spoken language

Subtitles (srt files)





Belphégor Le fantôme du LouvrDownload Torrent Magnet

#Belphégor #fantôme #Louvr