Belle de jour (1967) BluRay 1 Full Torrent Magnet Download

Download Torrent Belle de jour (1967) BluRay 1 Movie Full in HD Result. Movie Belle de jour (1967) BluRay 1 Torrent Download full. Movie Belle de jour (1967) BluRay 1 torrent Magnet Download Full. Belle de jour (1967) BluRay 1 Full Movie Torrent Download And Magnet Download For your PC And Mobiles. Latest Movie Belle de jour (1967) BluRay 1 Download Link In Bottom.

Torrent And Magnet Links Below

IMDB

Code:


General

Complete name : Belle.de.jour.(1967).BluRay.1080p.DTS.[Borsalino].DE.srt

Format : SubRip

File size : 75.9 KiB

Text

Format : SubRip

Compression mode : Lossless

General

Complete name : Belle.de.jour.(1967).BluRay.1080p.DTS.[Borsalino].EN.srt

Format : SubRip

File size : 74.1 KiB

Text

Format : SubRip

Compression mode : Lossless

General

Complete name : Belle.de.jour.(1967).BluRay.1080p.DTS.[Borsalino].ES.srt

Format : SubRip

File size : 70.5 KiB

Text

Format : SubRip

Compression mode : Lossless

General

Complete name : Belle.de.jour.(1967).BluRay.1080p.DTS.[Borsalino].IT.srt

Format : SubRip

File size : 68.3 KiB

Text

Format : SubRip

Compression mode : Lossless

General

Complete name : Belle.de.jour.(1967).BluRay.1080p.DTS.[Borsalino].NL.srt

Format : SubRip

File size : 77.2 KiB

Text

Format : SubRip

Compression mode : Lossless

General

Complete name : Belle.de.jour.(1967).BluRay.1080p.DTS.[Borsalino].PT.srt

Format : SubRip

File size : 76.6 KiB

Text

Format : SubRip

Compression mode : Lossless

General

Complete name : Belle.de.jour.(1967).BluRay.1080p.DTS.[Borsalino].RO.srt

Format : SubRip

File size : 72.6 KiB

Text

Format : SubRip

Compression mode : Lossless

General

Complete name : Belle.de.jour.(1967).BluRay.1080p.DTS.[Borsalino].RU.srt

Format : SubRip

File size : 87.8 KiB

Text

Format : SubRip

Compression mode : Lossless

General

Complete name : Belle.de.jour.(1967).BluRay.1080p.DTS.[Borsalino].mkv

Format : Matroska

Format version : Version 4

File size : 25.0 GiB

Duration : 1 h 40 min

Overall bit rate mode : Variable

Overall bit rate : 35.7 Mb/s

Movie name : Belle.de.jour.(1967).BluRay.1080p.DTS.[Borsalino]
Writing application : mkvmerge v56.1.0 (‘My Friend’) 64-bit

Writing library : libebml v1.4.2 + libmatroska v1.6.4

Video

ID : 1

Format : AVC

Format/Info : Advanced Video Codec

Format profile : [email protected]
Format settings : CABAC / 4 Ref Frames

Format settings, CABAC : Yes

Format settings, Reference frames : 4 frames

Format settings, GOP : M=3, N=12

Codec ID : V_MPEG4/ISO/AVC

Duration : 1 h 40 min

Bit rate mode : Variable

Bit rate : 34.9 Mb/s

Maximum bit rate : 37.0 Mb/s

Width : 1 920 pixels

Height : 1 080 pixels

Display aspect ratio : 16:9

Frame rate mode : Constant

Frame rate : 23.976 (24000/1001) FPS

Color space : YUV

Chroma subsampling : 4:2:0

Bit depth : 8 bits

Scan type : Progressive

Bits/(Pixel*Frame) : 0.702

Stream size : 24.4 GiB (98%)

Title : French

Language : French

Default : Yes

Forced : No

Audio

ID : 2

Format : DTS XLL

Format/Info : Digital Theater Systems

Commercial name : DTS-HD Master Audio

Codec ID : A_DTS

Duration : 1 h 40 min

Bit rate mode : Variable

Bit rate : 790 kb/s

Channel(s) : 1 channel

Channel layout : C

Sampling rate : 48.0 kHz

Frame rate : 93.750 FPS (512 SPF)

Bit depth : 24 bits

Compression mode : Lossless

Stream size : 567 MiB (2%)

Title : French

Language : French

Default : No

Forced : No

Spoken language

Subtitles (srt files)















Belle de jour (1967) BluRay 1Download Torrent Magnet

#Belle #jour #BluRay