Before.Sunset.2004.REMASTERED Full Torrent Magnet Download

Download Torrent Before.Sunset.2004.REMASTERED Movie Full in HD Result. Movie Before.Sunset.2004.REMASTERED Torrent Download full. Movie Before.Sunset.2004.REMASTERED torrent Magnet Download Full. Before.Sunset.2004.REMASTERED Full Movie Torrent Download And Magnet Download For your PC And Mobiles. Latest Movie Before.Sunset.2004.REMASTERED Download Link In Bottom.

Torrent And Magnet Links Below

Before.Sunset.2004.REMASTERED.BRRip.XviD.B4ND1T69

Director: Richard Linklater

Writers: Richard Linklater (screenplay), Julie Delpy (screenplay)

Stars: Ethan Hawke, Julie Delpy, Vernon Dobtcheff

Plot/Story:

Nine years after Jesse and Celine first met, they encounter each other again on the French leg of Jesse’s book tour.

General

Complete name : Before.Sunset.2004.REMASTERED.BRRip.XviD.B4ND1T69.avi

Format : AVI

Format/Info : Audio Video Interleave

File size : 975 MiB

Duration : 1 h 20 min

Overall bit rate : 1 693 kb/s

Subtitles : Yes…Included(HI)

Video

ID : 0

Format : MPEG-4 Visual

Format profile : Advanced [email protected]
Format settings, BVOP : 2

Format settings, QPel : No

Format settings, GMC : No warppoints

Format settings, Matrix : Default (H.263)

Codec ID : XVID

Codec ID/Hint : XviD

Duration : 1 h 20 min

Bit rate : 1 552 kb/s

Width : 720 pixels

Height : 390 pixels

Display aspect ratio : 1.85:1

Frame rate : 23.976 (24000/1001) FPS

Color space : YUV

Chroma subsampling : 4:2:0

Bit depth : 8 bits

Scan type : Progressive

Compression mode : Lossy

Bits/(Pixel*Frame) : 0.231

Stream size : 894 MiB (92%)

Writing library : XviD 64

Audio

ID : 1

Format : MPEG Audio

Format version : Version 1

Format profile : Layer 3

Codec ID : 55

Codec ID/Hint : MP3

Duration : 1 h 20 min

Bit rate mode : Constant

Bit rate : 128 kb/s

Channel(s) : 2 channels

Sampling rate : 48.0 kHz

Compression mode : Lossy

Stream size : 73.7 MiB (8%)

Alignment : Aligned on interleaves

Interleave, duration : 24 ms (0.58 video frame)

Screenshots:









Please Seed For As Long As Possible
Or At Least 1:1 Ratio…Thanks

Enjoy Peeps

Before.Sunset.2004.REMASTEREDDownload Torrent Magnet

#BeforeSunset2004REMASTERED