Before.Sunrise.1995.REMASTERE Full Torrent Magnet Download

Download Torrent Before.Sunrise.1995.REMASTERE Movie Full in HD Result. Movie Before.Sunrise.1995.REMASTERE Torrent Download full. Movie Before.Sunrise.1995.REMASTERE torrent Magnet Download Full. Before.Sunrise.1995.REMASTERE Full Movie Torrent Download And Magnet Download For your PC And Mobiles. Latest Movie Before.Sunrise.1995.REMASTERE Download Link In Bottom.

Torrent And Magnet Links Below

Before.Sunrise.1995.REMASTERED.BRRip.XviD.B4ND1T69

Director: Richard Linklater

Writers: Richard Linklater, Kim Krizan

Stars: Ethan Hawke, Julie Delpy, Andrea Eckert

Plot/Story:

A young man and woman meet on a train in Europe, and wind up spending one evening together in Vienna. Unfortunately, both know that this will probably be their only night together.

General

Complete name : Before.Sunrise.1995.REMASTERED.BRRip.XviD.B4ND1T69.avi

Format : AVI

Format/Info : Audio Video Interleave

File size : 980 MiB

Duration : 1 h 41 min

Overall bit rate : 1 355 kb/s

Subtitles : Yes…Included(HI)

Video

ID : 0

Format : MPEG-4 Visual

Format profile : Advanced [email protected]
Format settings, BVOP : 2

Format settings, QPel : No

Format settings, GMC : No warppoints

Format settings, Matrix : Default (H.263)

Codec ID : XVID

Codec ID/Hint : XviD

Duration : 1 h 41 min

Bit rate : 1 214 kb/s

Width : 720 pixels

Height : 390 pixels

Display aspect ratio : 1.85:1

Frame rate : 23.976 (24000/1001) FPS

Color space : YUV

Chroma subsampling : 4:2:0

Bit depth : 8 bits

Scan type : Progressive

Compression mode : Lossy

Bits/(Pixel*Frame) : 0.180

Stream size : 878 MiB (90%)

Writing library : XviD 64

Audio

ID : 1

Format : MPEG Audio

Format version : Version 1

Format profile : Layer 3

Codec ID : 55

Codec ID/Hint : MP3

Duration : 1 h 41 min

Bit rate mode : Constant

Bit rate : 128 kb/s

Channel(s) : 2 channels

Sampling rate : 48.0 kHz

Compression mode : Lossy

Stream size : 92.5 MiB (9%)

Alignment : Aligned on interleaves

Interleave, duration : 24 ms (0.58 video frame)

Screenshots:









Please Seed For As Long As Possible

Or At Least 1:1 Ratio…Thanks

Enjoy Peeps

Before.Sunrise.1995.REMASTEREDownload Torrent Magnet

#BeforeSunrise1995REMASTERE