Befaam 2021 Marathi 720p WebR Full Torrent Magnet Download

Download Torrent Befaam 2021 Marathi 720p WebR Movie Full in HD Result. Movie Befaam 2021 Marathi 720p WebR Torrent Download full. Movie Befaam 2021 Marathi 720p WebR torrent Magnet Download Full. Befaam 2021 Marathi 720p WebR Full Movie Torrent Download And Magnet Download For your PC And Mobiles. Latest Movie Befaam 2021 Marathi 720p WebR Download Link In Bottom.

Torrent And Magnet Links Below











General

Complete name : Befaam 2021 Marathi 720p WebRip x264 AAC ESubs [TMB].mp4

Format : MPEG-4

Format profile : Base Media / Version 2

Codec ID : mp42 (mp42/iso2/avc1/mp41)

File size : 1.41 GiB

Duration : 1 h 34 min

Overall bit rate mode : Variable

Overall bit rate : 2 128 kb/s

Video

Format : AVC

Format/Info : Advanced Video Codec

Format profile : [email protected]
Format settings : CABAC / 4 Ref Frames

Format settings, CABAC : Yes

Format settings, Reference : 4 frames

Codec ID : avc1

Codec ID/Info : Advanced Video Coding

Duration : 1 h 34 min

Source duration : 1 h 34 min

Bit rate : 2 060 kb/s

Width : 1 280 pixels

Height : 540 pixels

Display aspect ratio : 2.40:1

Original display aspect rat : 2.40:1

Frame rate mode : Variable

Frame rate : 25.000 FPS

Minimum frame rate : 14.286 FPS

Maximum frame rate : 25.000 FPS

Color space : YUV

Chroma subsampling : 4:2:0

Bit depth : 8 bits

Scan type : Progressive

Bits/(Pixel*Frame) : 0.119

Stream size : 1.37 GiB (97%)

Source stream size : 1.37 GiB (97%)

Audio

Format : AAC LC

Format/Info : Advanced Audio Codec Low Complexity

Codec ID : mp4a-40-2

Duration : 1 h 34 min

Bit rate mode : Constant

Bit rate : 61.4 kb/s

Channel(s) : 2 channels

Channel layout : L R

Sampling rate : 48.0 kHz

Frame rate : 46.875 FPS (1024 SPF)

Compression mode : Lossy

Stream size : 41.7 MiB (3%)

Text

Format : Timed Text

Muxing mode : sbtl

Codec ID : tx3g

Duration : 1 h 32 min

Bit rate mode : Variable

Bit rate : 96 b/s

Stream size : 65.4 KiB (0%)

Source : 1080p [email protected]

Rip & Uploaded & Shared by TMB

Seeding 24×7… Extreme Seeding…

Enjoy!

Befaam 2021 Marathi 720p WebRDownload Torrent Magnet

#Befaam #Marathi #720p #WebR