Befaam 2021 Marathi 4K UHD We Full Torrent Magnet Download

Download Torrent Befaam 2021 Marathi 4K UHD We Movie Full in HD Result. Movie Befaam 2021 Marathi 4K UHD We Torrent Download full. Movie Befaam 2021 Marathi 4K UHD We torrent Magnet Download Full. Befaam 2021 Marathi 4K UHD We Full Movie Torrent Download And Magnet Download For your PC And Mobiles. Latest Movie Befaam 2021 Marathi 4K UHD We Download Link In Bottom.

Torrent And Magnet Links Below











General

Complete name : Befaam 2021 Marathi 4K UHD WebRip x264 AAC ESubs [TMB].mp4

Format : MPEG-4

Format profile : Base Media / Version 2

Codec ID : mp42 (mp42/iso2/avc1/mp41)

File size : 7.84 GiB

Duration : 1 h 34 min

Overall bit rate mode : Variable

Overall bit rate : 11.8 Mb/s

Video

Format : AVC

Format/Info : Advanced Video Codec

Format profile : [email protected]
Format settings : CABAC / 1 Ref Frames

Format settings, CABAC : Yes

Format settings, Reference : 1 frame

Codec ID : avc1

Codec ID/Info : Advanced Video Coding

Duration : 1 h 34 min

Bit rate : 11.8 Mb/s

Width : 3 840 pixels

Height : 1 616 pixels

Display aspect ratio : 2.40:1

Frame rate mode : Variable

Frame rate : 25.000 FPS

Minimum frame rate : 14.286 FPS

Maximum frame rate : 25.000 FPS

Color space : YUV

Chroma subsampling : 4:2:0

Bit depth : 8 bits

Scan type : Progressive

Bits/(Pixel*Frame) : 0.076

Stream size : 7.80 GiB (99%)

Audio

Format : AAC LC

Format/Info : Advanced Audio Codec Low Complexity

Codec ID : mp4a-40-2

Duration : 1 h 34 min

Bit rate mode : Constant

Bit rate : 61.4 kb/s

Channel(s) : 2 channels

Channel layout : L R

Sampling rate : 48.0 kHz

Frame rate : 46.875 FPS (1024 SPF)

Compression mode : Lossy

Stream size : 41.7 MiB (1%)

Text

Format : Timed Text

Muxing mode : sbtl

Codec ID : tx3g

Duration : 1 h 32 min

Bit rate mode : Variable

Bit rate : 96 b/s

Stream size : 65.4 KiB (0%)

Source : 1080p [email protected]

Rip & Uploaded & Shared by TMB

Seeding 24×7… Extreme Seeding…

Enjoy!

Befaam 2021 Marathi 4K UHD WeDownload Torrent Magnet

#Befaam #Marathi #UHD