Befaam 2021 Marathi 1080p Web Full Torrent Magnet Download

Download Torrent Befaam 2021 Marathi 1080p Web Movie Full in HD Result. Movie Befaam 2021 Marathi 1080p Web Torrent Download full. Movie Befaam 2021 Marathi 1080p Web torrent Magnet Download Full. Befaam 2021 Marathi 1080p Web Full Movie Torrent Download And Magnet Download For your PC And Mobiles. Latest Movie Befaam 2021 Marathi 1080p Web Download Link In Bottom.

Torrent And Magnet Links Below










General

Complete name : Befaam 2021 Marathi 1080p Web-DL x264 AAC ESubs [TMB].mkv

Format : Matroska

Format version : Version 4

File size : 1.56 GiB

Duration : 1 h 34 min

Overall bit rate mode : Variable

Overall bit rate : 2 348 kb/s

Video

Format : AVC

Format/Info : Advanced Video Codec

Format profile : [email protected]
Format settings : CABAC / 4 Ref Frames

Format settings, CABAC : Yes

Format settings, Reference : 4 frames

Format settings, GOP : M=4, N=50

Codec ID : V_MPEG4/ISO/AVC

Duration : 1 h 34 min

Bit rate mode : Variable

Bit rate : 2 284 kb/s

Maximum bit rate : 3 375 kb/s

Width : 1 920 pixels

Height : 1 080 pixels

Display aspect ratio : 16:9

Frame rate mode : Constant

Frame rate : 25.000 FPS

Standard : PAL

Color space : YUV

Chroma subsampling : 4:2:0

Bit depth : 8 bits

Scan type : Progressive

Bits/(Pixel*Frame) : 0.044

Stream size : 1.51 GiB (97%)

Audio

Format : AAC LC

Format/Info : Advanced Audio Codec Low Complexity

Codec ID : A_AAC-2

Duration : 1 h 34 min

Bit rate : 61.4 kb/s

Channel(s) : 2 channels

Channel layout : L R

Sampling rate : 48.0 kHz

Frame rate : 46.875 FPS (1024 SPF)

Compression mode : Lossy

Delay relative to video : -33 ms

Stream size : 41.7 MiB (3%)

Text

Format : UTF-8

Codec ID : S_TEXT/UTF8

Codec ID/Info : UTF-8 Plain Text

Duration : 1 h 30 min

Bit rate : 53 b/s

Count of elements : 1195

Stream size : 35.4 KiB (0%)

Uploaded & Shared by TMB

Seeding 24×7… Extreme Seeding…

Enjoy!

Befaam 2021 Marathi 1080p WebDownload Torrent Magnet

#Befaam #Marathi #1080p #Web