BBC Young Musician 2020 Semi- Full Torrent Magnet Download

Download Torrent BBC Young Musician 2020 Semi- Movie Full in HD Result. Movie BBC Young Musician 2020 Semi- Torrent Download full. Movie BBC Young Musician 2020 Semi- torrent Magnet Download Full. BBC Young Musician 2020 Semi- Full Movie Torrent Download And Magnet Download For your PC And Mobiles. Latest Movie BBC Young Musician 2020 Semi- Download Link In Bottom.

Torrent And Magnet Links Below

BBC Young Musician 2020 Semi-Final (1280x720p HD, 50fps, soft Eng subs)

[Two versions of this broadcast were available, 89 minutes and 100 minutes. This is the latter].

The 2020 edition of BBC Young Musician remained incomplete when we left it last spring. Tonight the story resumes with extensive highlights of the semi-final, which was filmed at the Royal Welsh College of Music and Drama just days before the first UK-wide lockdown back in March last year. The semi-final sees the winners of the keyboard, strings, brass, woodwind and percussion finals compete for the three coveted places in the grand final. / / Organist and conductor Anna Lapwood is our guide to proceedings. She is joined by Tim Rhys-Evans, director of music at the Royal Welsh College of Music and Drama, who provides insight and analysis. Josie d’Arby also joins the line-up with interviews with the semi-finalists and Jess Gillam continues her series of conversations discussing the changing face of classical music with visionary conductor Nicholas Collon. / / As always, the five talented performers provide a tough challenge for the judges. / / The semi-finalists are: / Fang Zhang, winner of the percussion final, oboist Ewan Millar, winner of the woodwind final, Annemarie Federle, who won the brass final on French horn, winner of the keyboard final, pianist Thomas Luke, and violinist Coco Tomita, who won the strings final. / / Making the all-important decisions are: / Lisa Tregale, director of the BBC National Orchestra and Chorus of Wales, Chi-chi Nwanoku, acclaimed double bassist and founder, artistic and executive director of the Chineke! Foundation, John Hardy, award-winning composer and head of composition at the Royal Welsh College of Music and Drama, and Angela Dixon, chief executive of performance space Saffron Hall and chair of the judging panel for BBC Young Musician 2020. / / The semi-final was filmed at the Royal Welsh College of Music and Drama in March 2020 before the national lockdown.

First broadcast: 30 April 2021

Duration: 100 minutes

Torrent dead? Request reseed at torrentgalaxy.org – or ask at elsonroa at tutanota.com

Media info:

General

Format : MPEG-4

Format profile : Base Media

Codec ID : isom (isom/iso2/avc1/mp41)

File size : 3.21 GiB

Duration : 1h 29mn

Overall bit rate mode : Variable

Overall bit rate : 5 159 Kbps

Video

ID : 1

Format : AVC

Format/Info : Advanced Video Codec

Format profile : [email protected]
Format settings, CABAC : Yes

Format settings, ReFrames : 4 frames

Codec ID : avc1

Codec ID/Info : Advanced Video Coding

Duration : 1h 29mn

Bit rate : 5 023 Kbps

Width : 1 280 pixels

Height : 720 pixels

Display aspect ratio : 16:9

Frame rate mode : Constant

Frame rate : 50.000 fps

Color space : YUV

Chroma subsampling : 4:2:0

Bit depth : 8 bits

Scan type : Progressive

Bits/(Pixel*Frame) : 0.109

Stream size : 3.12 GiB (97%)

Encoded date : UTC 1904-01-01 00:00:00

Tagged date : UTC 1904-01-01 00:00:00

Color range : Limited

Color primaries : BT.709

Transfer characteristics : BT.709

Matrix coefficients : BT.709

Audio

ID : 2

Format : AAC

Format/Info : Advanced Audio Codec

Format profile : LC

Codec ID : 40

Duration : 1h 29mn

Bit rate mode : Variable

Bit rate : 128 Kbps

Maximum bit rate : 156 Kbps

Channel(s) : 2 channels

Channel positions : Front: L R

Sampling rate : 48.0 KHz

Frame rate : 46.875 fps (1024 spf)

Compression mode : Lossy

Stream size : 81.5 MiB (2%)

Language : English

BBC Young Musician 2020 Semi-Download Torrent Magnet

#BBC #Young #Musician #Semi