BBC Young Musician 2020 Jazz Full Torrent Magnet Download

Download Torrent BBC Young Musician 2020 Jazz Movie Full in HD Result. Movie BBC Young Musician 2020 Jazz Torrent Download full. Movie BBC Young Musician 2020 Jazz torrent Magnet Download Full. BBC Young Musician 2020 Jazz Full Movie Torrent Download And Magnet Download For your PC And Mobiles. Latest Movie BBC Young Musician 2020 Jazz Download Link In Bottom.

Torrent And Magnet Links Below

BBC Young Musician 2020 Jazz Final (1280x720p HD, 50fps, soft Eng subs)

The 2020 final of BBC Young Jazz Musician comes from London’s Cadogan Hall. Hosted by saxophonist, composer and broadcaster YolanDa Brown and filmed in the absence of an audience, the final features five of the UK’s most promising young jazz performers: saxophonists Alex Clarke and Matt Carmichael, bassist Kielan Sheard, pianist Deschanel Gordon and guitarist Ralph Porrett. / / In the final, they will be playing alongside one of the UK’s leading jazz trios – Nikki Yeoh’s Infinitum, which comprises Michael Mondesir on bass, his brother Mark Mondesir on drums and Nikki on piano. Having made it through two rounds of stiff competition, the finalists now have to impress a jury made up of some of the UK’s biggest jazz names: composer and pianist Gwilym Simcock, saxophonist and composer Nubya Garcia and multi-instrumentalist bandleader Orphy Robinson. Xhosa Cole, the winner of BBC Young Jazz Musician 2018, returns to the competition with a guest performance.

First broadcast: 22 November 2020

Duration: 120 minutes

Torrent dead? Request reseed at torrentgalaxy.org – or ask at elsonroa at tutanota.com

Media info:-

General

Format : MPEG-4

Format profile : Base Media

Codec ID : isom (isom/iso2/avc1/mp41)

File size : 4.31 GiB

Duration : 1h 58mn

Overall bit rate mode : Variable

Overall bit rate : 5 186 Kbps

Video

ID : 1

Format : AVC

Format/Info : Advanced Video Codec

Format profile : [email protected]
Format settings, CABAC : Yes

Format settings, ReFrames : 4 frames

Codec ID : avc1

Codec ID/Info : Advanced Video Coding

Duration : 1h 58mn

Bit rate : 5 047 Kbps

Width : 1 280 pixels

Height : 720 pixels

Display aspect ratio : 16:9

Frame rate mode : Constant

Frame rate : 50.000 fps

Color space : YUV

Chroma subsampling : 4:2:0

Bit depth : 8 bits

Scan type : Progressive

Bits/(Pixel*Frame) : 0.110

Stream size : 4.19 GiB (97%)

Encoded date : UTC 1904-01-01 00:00:00

Tagged date : UTC 1904-01-01 00:00:00

Color range : Limited

Color primaries : BT.709

Transfer characteristics : BT.709

Matrix coefficients : BT.709

Audio

ID : 2

Format : AAC

Format/Info : Advanced Audio Codec

Format profile : LC

Codec ID : 40

Duration : 1h 58mn

Bit rate mode : Variable

Bit rate : 128 Kbps

Maximum bit rate : 134 Kbps

Channel(s) : 2 channels

Channel positions : Front: L R

Sampling rate : 48.0 KHz

Frame rate : 46.875 fps (1024 spf)

Compression mode : Lossy

Stream size : 109 MiB (2%)

Language : English

BBC Young Musician 2020 Jazz Download Torrent Magnet

#BBC #Young #Musician #Jazz