Batwoman S02E15 Armed and Dan Full Torrent Magnet Download

Download Torrent Batwoman S02E15 Armed and Dan Movie Full in HD Result. Movie Batwoman S02E15 Armed and Dan Torrent Download full. Movie Batwoman S02E15 Armed and Dan torrent Magnet Download Full. Batwoman S02E15 Armed and Dan Full Movie Torrent Download And Magnet Download For your PC And Mobiles. Latest Movie Batwoman S02E15 Armed and Dan Download Link In Bottom.

Torrent And Magnet Links Below

Media Information

General

Unique ID : 29850300001571607145021029505753324870 (0x1674F56AE2BFA51C5E70EAF00C3E9D46)

Complete name : Batwoman S02E15 Armed and Dangerous 1080p AMZN WEBrip x265 DDP5.1 D0ct0rLew[SEV].mkv

Format : Matroska

Format version : Version 4

File size : 734 MiB

Duration : 42 min 10 s

Overall bit rate : 2 433 kb/s

Movie name : Batwoman S02E15 Armed and Dangerous 1080p AMZN WEBrip x265 DDP5.1 D0ct0rLew[SEV]
Encoded date : UTC 2021-06-07 22:03:12

Writing application : mkvmerge v56.1.0 (‘My Friend’) 64-bit

Writing library : libebml v1.4.2 + libmatroska v1.6.4

Video

ID : 1

Format : HEVC

Format/Info : High Efficiency Video Coding

Format profile : Main [email protected]@Main

Codec ID : V_MPEGH/ISO/HEVC

Duration : 42 min 10 s

Bit rate : 1 791 kb/s

Width : 1 920 pixels

Height : 960 pixels

Display aspect ratio : 2.000

Frame rate mode : Constant

Frame rate : 23.976 (24000/1001) FPS

Color space : YUV

Chroma subsampling : 4:2:0

Bit depth : 10 bits

Bits/(Pixel*Frame) : 0.041

Stream size : 540 MiB (74%)

Writing library : x265 3.5+9-bf91444e0:[Windows][MSVC 1928][64 bit] 10bit

Encoding settings : cpuid=1111039 / frame-threads=3 / numa-pools=8 / wpp / no-pmode / no-pme / no-psnr / no-ssim / log-level=2 / input-csp=1 / input-res=1920×960 / interlace=0 / total-frames=1440 / level-idc=0 / high-tier=1 / uhd-bd=0 / ref=4 / no-allow-non-conformance / no-repeat-headers / annexb / no-aud / no-eob / no-eos / no-hrd / info / hash=0 / no-temporal-layers / open-gop / min-keyint=24 / keyint=240 / gop-lookahead=0 / bframes=16 / b-adapt=2 / b-pyramid / bframe-bias=0 / rc-lookahead=90 / lookahead-slices=4 / scenecut=40 / hist-scenecut=0 / radl=0 / no-splice / no-intra-refresh / ctu=64 / min-cu-size=8 / no-rect / no-amp / max-tu-size=32 / tu-inter-depth=4 / tu-intra-depth=4 / limit-tu=0 / rdoq-level=2 / dynamic-rd=0.00 / no-ssim-rd / signhide / no-tskip / nr-intra=0 / nr-inter=0 / no-constrained-intra / no-strong-intra-smoothing / max-merge=5 / limit-refs=0 / limit-modes / me=3 / subme=7 / merange=92 / temporal-mvp / no-frame-dup / no-hme / weightp / no-weightb / no-analyze-src-pics / deblock=0:0 / sao / no-sao-non-deblock / rd=4 / selective-sao=4 / no-early-skip / rskip / no-fast-intra / no-tskip-fast / no-cu-lossless / no-b-intra / no-splitrd-skip / rdpenalty=0 / psy-rd=1.50 / psy-rdoq=1.00 / no-rd-refine / no-lossless / cbqpoffs=0 / crqpoffs=0 / rc=crf / crf=19.0 / qcomp=0.60 / qpstep=4 / stats-write=0 / stats-read=0 / ipratio=1.40 / pbratio=1.30 / aq-mode=4 / aq-strength=1.10 / cutree / zone-count=0 / no-strict-cbr / qg-size=32 / no-rc-grain / qpmax=69 / qpmin=0 / no-const-vbv / sar=1 / overscan=0 / videoformat=5 / range=0 / colorprim=2 / transfer=2 / colormatrix=2 / chromaloc=0 / display-window=0 / cll=0,0 / min-luma=0 / max-luma=1023 / log2-max-poc-lsb=8 / vui-timing-info / vui-hrd-info / slices=1 / no-opt-qp-pps / no-opt-ref-list-length-pps / no-multi-pass-opt-rps / scenecut-bias=0.05 / hist-threshold=0.03 / no-opt-cu-delta-qp / no-aq-motion / no-hdr10 / no-hdr10-opt / no-dhdr10-opt / no-idr-recovery-sei / analysis-reuse-level=0 / analysis-save-reuse-level=0 / analysis-load-reuse-level=0 / scale-factor=0 / refine-intra=0 / refine-inter=0 / refine-mv=1 / refine-ctu-distortion=0 / no-limit-sao / ctu-info=0 / no-lowpass-dct / refine-analysis-type=0 / copy-pic=1 / max-ausize-factor=1.0 / no-dynamic-refine / no-single-sei / no-hevc-aq / no-svt / no-field / qp-adaptation-range=1.00 / scenecut-aware-qp=0conformance-window-offsets / right=0 / bottom=0 / decoder-max-rate=0 / no-vbv-live-multi-pass

Default : Yes

Forced : No

Audio

ID : 2

Format : E-AC-3

Format/Info : Enhanced AC-3

Commercial name : Dolby Digital Plus

Codec ID : A_EAC3

Duration : 42 min 10 s

Bit rate mode : Constant

Bit rate : 640 kb/s

Channel(s) : 6 channels

Channel layout : L R C LFE Ls Rs

Sampling rate : 48.0 kHz

Frame rate : 31.250 FPS (1536 SPF)

Compression mode : Lossy

Stream size : 193 MiB (26%)

Language : English

Service kind : Complete Main

Default : Yes

Forced : No

Text

ID : 3

Format : UTF-8

Codec ID : S_TEXT/UTF8

Codec ID/Info : UTF-8 Plain Text

Duration : 42 min 3 s

Bit rate : 73 b/s

Count of elements : 737

Stream size : 22.7 KiB (0%)

Title : SDH

Language : English

Default : No

Forced : No

We have no issue with individuals posting or re-uploading our torrents on a platform we aren’t on. However, if this is something you’d like to do, please do so in a ‘as-is’ format. We ask that you do not create a new torrent, include all descriptions you see above including the SEV logo, tags, notes and screenshots.
If you’d like to become a permanent poster on a website we don’t post to, feel free to get in contact with a Sublime Encoded Video member.

We are recruiting/training new members for SEV & seedbox providers as well as people to help out with subtitles.
As you already know, we deliver quality, so you know the standard.
If you’re interested, feel free to contact any of the team members.

Batwoman S02E15 Armed and DanDownload Torrent Magnet

#Batwoman #S02E15 #Armed #Dan