Batman.v.Superman.Dawn.of.Jus Full Torrent Magnet Download

Download Torrent Batman.v.Superman.Dawn.of.Jus Movie Full in HD Result. Movie Batman.v.Superman.Dawn.of.Jus Torrent Download full. Movie Batman.v.Superman.Dawn.of.Jus torrent Magnet Download Full. Batman.v.Superman.Dawn.of.Jus Full Movie Torrent Download And Magnet Download For your PC And Mobiles. Latest Movie Batman.v.Superman.Dawn.of.Jus Download Link In Bottom.

Torrent And Magnet Links Below

Quote:

Video

ID : 1

Format : HEVC

Format/Info : High Efficiency Video Coding

Format profile : Main [email protected]@High

HDR format : SMPTE ST 2086, HDR10 compatible

Codec ID : V_MPEGH/ISO/HEVC

Duration : 3 h 2 min

Bit rate : 35.8 Mb/s

Width : 3 840 pixels

Height : 2 158 pixels

Display aspect ratio : 16:9

Frame rate mode : Constant

Frame rate : 23.976 (24000/1001) FPS

Color space : YUV

Chroma subsampling : 4:2:0 (Type 2)

Bit depth : 10 bits

Bits/(Pixel*Frame) : 0.180

Stream size : 45.7 GiB (86%)

Writing library : x265 3.5+9-bf91444e0:[Windows][MSVC 1928][64 bit] 10bit

Encoding settings : cpuid=1111039 / frame-threads=4 / numa-pools=16 / wpp / no-pmode / no-pme / no-psnr / no-ssim / log-level=2 / input-csp=1 / input-res=3840×2158 / interlace=0 / total-frames=262625 / level-idc=51 / high-tier=1 / uhd-bd=0 / ref=4 / no-allow-non-conformance / repeat-headers / annexb / aud / no-eob / no-eos / hrd / info / hash=0 / no-temporal-layers / open-gop / min-keyint=23 / keyint=250 / gop-lookahead=0 / bframes=4 / b-adapt=2 / b-pyramid / bframe-bias=0 / rc-lookahead=25 / lookahead-slices=4 / scenecut=40 / hist-scenecut=0 / radl=0 / no-splice / no-intra-refresh / ctu=64 / min-cu-size=8 / rect / no-amp / max-tu-size=32 / tu-inter-depth=1 / tu-intra-depth=1 / limit-tu=0 / rdoq-level=2 / dynamic-rd=0.00 / no-ssim-rd / signhide / no-tskip / nr-intra=0 / nr-inter=0 / no-constrained-intra / strong-intra-smoothing / max-merge=3 / limit-refs=3 / limit-modes / me=3 / subme=3 / merange=57 / temporal-mvp / no-frame-dup / no-hme / weightp / no-weightb / no-analyze-src-pics / deblock=-3:-3 / no-sao / no-sao-non-deblock / rd=4 / selective-sao=0 / no-early-skip / rskip / no-fast-intra / no-tskip-fast / no-cu-lossless / no-b-intra / no-splitrd-skip / rdpenalty=0 / psy-rd=2.00 / psy-rdoq=1.00 / no-rd-refine / no-lossless / cbqpoffs=0 / crqpoffs=0 / rc=crf / crf=17.0 / qcomp=0.60 / qpstep=4 / stats-write=0 / stats-read=0 / vbv-maxrate=160000 / vbv-bufsize=160000 / vbv-init=0.9 / min-vbv-fullness=50.0 / max-vbv-fullness=80.0 / crf-max=0.0 / crf-min=0.0 / ipratio=1.40 / pbratio=1.30 / aq-mode=2 / aq-strength=1.00 / cutree / zone-count=0 / no-strict-cbr / qg-size=32 / no-rc-grain / qpmax=69 / qpmin=0 / no-const-vbv / sar=1 / overscan=0 / videoformat=5 / range=0 / colorprim=9 / transfer=16 / colormatrix=9 / chromaloc=1 / chromaloc-top=2 / chromaloc-bottom=2 / display-window=0 / master-display=G(13250,34500)B(7500,3000)R(34000,16000)WP(15635,16450)L(40000000,50) / cll=699,530 / min-luma=0 / max-luma=1023 / log2-max-poc-lsb=8 / vui-timing-info / vui-hrd-info / slices=1 / no-opt-qp-pps / no-opt-ref-list-length-pps / no-multi-pass-opt-rps / scenecut-bias=0.05 / hist-threshold=0.03 / no-opt-cu-delta-qp / no-aq-motion / hdr10 / hdr10-opt / no-dhdr10-opt / no-idr-recovery-sei / analysis-reuse-level=0 / analysis-save-reuse-level=0 / analysis-load-reuse-level=0 / scale-factor=0 / refine-intra=0 / refine-inter=0 / refine-mv=1 / refine-ctu-distortion=0 / no-limit-sao / ctu-info=0 / no-lowpass-dct / refine-analysis-type=0 / copy-pic=1 / max-ausize-factor=1.0 / no-dynamic-refine / no-single-sei / no-hevc-aq / no-svt / no-field / qp-adaptation-range=1.00 / scenecut-aware-qp=0conformance-window-offsets / right=0 / bottom=0 / decoder-max-rate=0 / no-vbv-live-multi-pass

Default : Yes

Forced : No

Color range : Limited

Color primaries : BT.2020

Transfer characteristics : PQ

Matrix coefficients : BT.2020 non-constant

Mastering display color primaries : Display P3

Mastering display luminance : min: 0.0050 cd/m2, max: 4000 cd/m2

Maximum Content Light Level : 699 cd/m2

Maximum Frame-Average Light Level : 530 cd/m2

Audio #1

ID : 2

Format : MLP FBA 16-ch

Format/Info : Meridian Lossless Packing FBA with 16-channel presentation

Commercial name : Dolby TrueHD with Dolby Atmos

Codec ID : A_TRUEHD

Duration : 3 h 2 min

Bit rate mode : Variable

Bit rate : 4 967 kb/s

Maximum bit rate : 8 199 kb/s

Channel(s) : 8 channels

Channel layout : L R C LFE Ls Rs Lb Rb

Sampling rate : 48.0 kHz

Frame rate : 1 200.000 FPS (40 SPF)

Compression mode : Lossless

Stream size : 6.33 GiB (12%)

Language : English

Default : Yes

Forced : No

Number of dynamic objects : 11

Bed channel count : 1 channel

Bed channel configuration : LFE

Audio #2

ID : 3

Format : AC-3

Format/Info : Audio Coding 3

Commercial name : Dolby Digital

Format settings : Dolby Surround EX

Codec ID : A_AC3

Duration : 3 h 2 min

Bit rate mode : Constant

Bit rate : 448 kb/s

Channel(s) : 6 channels

Channel layout : L R C LFE Ls Rs

Sampling rate : 48.0 kHz

Frame rate : 31.250 FPS (1536 SPF)

Compression mode : Lossy

Stream size : 585 MiB (1%)

Language : English

Service kind : Complete Main

Default : No

Forced : No

Audio #3

ID : 4

Format : AAC LC

Format/Info : Advanced Audio Codec Low Complexity

Codec ID : A_AAC-2

Duration : 3 h 2 min

Bit rate : 124 kb/s

Channel(s) : 2 channels

Channel layout : L R

Sampling rate : 48.0 kHz

Frame rate : 46.875 FPS (1024 SPF)

Compression mode : Lossy

Delay relative to video : 20 ms

Stream size : 162 MiB (0%)

Title : Commentary

Language : English

Default : No

Forced : No

Text #1

ID : 5

Format : PGS

Muxing mode : zlib

Codec ID : S_HDMV/PGS

Codec ID/Info : Picture based subtitle format used on BDs/HD-DVDs

Duration : 2 h 53 min

Bit rate : 27.2 kb/s

Count of elements : 3712

Stream size : 33.7 MiB (0%)

Title : SDH

Language : English

Default : No

Forced : No

Text #2

ID : 6

Format : PGS

Muxing mode : zlib

Codec ID : S_HDMV/PGS

Codec ID/Info : Picture based subtitle format used on BDs/HD-DVDs

Duration : 3 h 1 min

Bit rate : 21.8 kb/s

Count of elements : 3200

Stream size : 28.3 MiB (0%)

Language : French

Default : No

Forced : No

Text #3

ID : 7

Format : PGS

Muxing mode : zlib

Codec ID : S_HDMV/PGS

Codec ID/Info : Picture based subtitle format used on BDs/HD-DVDs

Duration : 2 h 53 min

Bit rate : 27.0 kb/s

Count of elements : 3990

Stream size : 33.5 MiB (0%)

Language : Italian

Default : No

Forced : No

Text #4

ID : 8

Format : PGS

Muxing mode : zlib

Codec ID : S_HDMV/PGS

Codec ID/Info : Picture based subtitle format used on BDs/HD-DVDs

Duration : 3 h 1 min

Bit rate : 22.1 kb/s

Count of elements : 3148

Stream size : 28.8 MiB (0%)

Language : Spanish

Default : No

Forced : No

Text #5

ID : 9

Format : PGS

Muxing mode : zlib

Codec ID : S_HDMV/PGS

Codec ID/Info : Picture based subtitle format used on BDs/HD-DVDs

Duration : 3 h 1 min

Bit rate : 17.7 kb/s

Count of elements : 3266

Stream size : 23.1 MiB (0%)

Language : Chinese

Default : No

Forced : No

Text #6

ID : 10

Format : PGS

Muxing mode : zlib

Codec ID : S_HDMV/PGS

Codec ID/Info : Picture based subtitle format used on BDs/HD-DVDs

Duration : 3 h 1 min

Bit rate : 16.4 kb/s

Count of elements : 3264

Stream size : 21.3 MiB (0%)

Language : Chinese

Default : No

Forced : No

Text #7

ID : 11

Format : PGS

Muxing mode : zlib

Codec ID : S_HDMV/PGS

Codec ID/Info : Picture based subtitle format used on BDs/HD-DVDs

Duration : 3 h 1 min

Bit rate : 16.0 kb/s

Count of elements : 3264

Stream size : 20.8 MiB (0%)

Language : Korean

Default : No

Forced : No

Text #8

ID : 12

Format : PGS

Muxing mode : zlib

Codec ID : S_HDMV/PGS

Codec ID/Info : Picture based subtitle format used on BDs/HD-DVDs

Duration : 3 h 1 min

Bit rate : 21.9 kb/s

Count of elements : 3214

Stream size : 28.5 MiB (0%)

Language : Spanish

Default : No

Forced : No

Text #9

ID : 13

Format : PGS

Muxing mode : zlib

Codec ID : S_HDMV/PGS

Codec ID/Info : Picture based subtitle format used on BDs/HD-DVDs

Duration : 2 h 53 min

Bit rate : 13.0 kb/s

Count of elements : 3244

Stream size : 16.1 MiB (0%)

Language : Arabic

Default : No

Forced : No

Text #10

ID : 14

Format : PGS

Muxing mode : zlib

Codec ID : S_HDMV/PGS

Codec ID/Info : Picture based subtitle format used on BDs/HD-DVDs

Duration : 3 h 2 min

Bit rate : 21.0 kb/s

Count of elements : 3220

Stream size : 27.3 MiB (0%)

Language : Czech

Default : No

Forced : No

Text #11

ID : 15

Format : PGS

Muxing mode : zlib

Codec ID : S_HDMV/PGS

Codec ID/Info : Picture based subtitle format used on BDs/HD-DVDs

Duration : 3 h 2 min

Bit rate : 20.8 kb/s

Count of elements : 2954

Stream size : 27.1 MiB (0%)

Language : Danish

Default : No

Forced : No

Text #12

ID : 16

Format : PGS

Muxing mode : zlib

Codec ID : S_HDMV/PGS

Codec ID/Info : Picture based subtitle format used on BDs/HD-DVDs

Duration : 3 h 2 min

Bit rate : 20.6 kb/s

Count of elements : 3010

Stream size : 26.8 MiB (0%)

Language : Finnish

Default : No

Forced : No

Text #13

ID : 17

Format : PGS

Muxing mode : zlib

Codec ID : S_HDMV/PGS

Codec ID/Info : Picture based subtitle format used on BDs/HD-DVDs

Duration : 3 h 2 min

Bit rate : 21.6 kb/s

Count of elements : 3200

Stream size : 28.1 MiB (0%)

Language : Norwegian

Default : No

Forced : No

Text #14

ID : 18

Format : PGS

Muxing mode : zlib

Codec ID : S_HDMV/PGS

Codec ID/Info : Picture based subtitle format used on BDs/HD-DVDs

Duration : 3 h 1 min

Bit rate : 20.3 kb/s

Count of elements : 3142

Stream size : 26.4 MiB (0%)

Language : Polish

Default : No

Forced : No

Text #15

ID : 19

Format : PGS

Muxing mode : zlib

Codec ID : S_HDMV/PGS

Codec ID/Info : Picture based subtitle format used on BDs/HD-DVDs

Duration : 3 h 1 min

Bit rate : 21.0 kb/s

Count of elements : 3186

Stream size : 27.4 MiB (0%)

Language : Swedish

Default : No

Forced : No

Menu

00:00:00.000 : :Chapter 01

00:10:10.652 : :Chapter 02

00:27:00.661 : :Chapter 03

00:37:49.225 : :Chapter 04

00:46:54.520 : :Chapter 05

01:02:04.971 : :Chapter 06

01:14:10.613 : :Chapter 07

01:28:07.115 : :Chapter 08

01:41:46.642 : :Chapter 09

01:53:52.617 : :Chapter 10

02:02:58.079 : :Chapter 11

02:15:04.054 : :Chapter 12

02:27:55.075 : :Chapter 13

02:36:51.444 : :Chapter 14

02:48:28.348 : :Chapter 15

02:54:43.765 : :Chapter 16

03:02:33.401 : :Chapter 17

Batman.v.Superman.Dawn.of.JusDownload Torrent Magnet

#BatmanvSupermanDawnofJus