Batman.Soul.of.the.Dragon.202 Full Torrent Magnet Download

Download Torrent Batman.Soul.of.the.Dragon.202 Movie Full in HD Result. Movie Batman.Soul.of.the.Dragon.202 Torrent Download full. Movie Batman.Soul.of.the.Dragon.202 torrent Magnet Download Full. Batman.Soul.of.the.Dragon.202 Full Movie Torrent Download And Magnet Download For your PC And Mobiles. Latest Movie Batman.Soul.of.the.Dragon.202 Download Link In Bottom.

Torrent And Magnet Links Below

https://www.imdb.com/title/tt12885852/

Code:

Video

ID : 1

Format : HEVC

Format/Info : High Efficiency Video Coding

Format profile : Main [email protected]@High

HDR format : SMPTE ST 2086, HDR10 compatible

Codec ID : V_MPEGH/ISO/HEVC

Duration : 1 h 22 min

Bit rate : 13.7 Mb/s

Width : 3 840 pixels

Height : 2 160 pixels

Display aspect ratio : 16:9

Frame rate mode : Constant

Frame rate : 23.976 (24000/1001) FPS

Color space : YUV

Chroma subsampling : 4:2:0 (Type 2)

Bit depth : 10 bits

Bits/(Pixel*Frame) : 0.069

Stream size : 7.91 GiB (81%)

Writing library : x265 3.0_Au+10-74a8672ea4f7:[Windows][GCC 8.2.1][64 bit] 10bit

Encoding settings : cpuid=1111039 / frame-threads=6 / numa-pools=24,24,24,24 / wpp / no-pmode / no-pme / no-psnr / no-ssim / log-level=2 / input-csp=1 / input-res=3840×2160 / interlace=0 / total-frames=0 / level-idc=51 / high-tier=1 / uhd-bd=0 / ref=3 / no-allow-non-conformance / repeat-headers / annexb / aud / hrd / info / hash=0 / no-temporal-layers / no-open-gop / min-keyint=1 / keyint=24 / gop-lookahead=0 / bframes=6 / b-adapt=2 / b-pyramid / bframe-bias=0 / rc-lookahead=25 / lookahead-slices=4 / scenecut=40 / radl=0 / no-splice / no-intra-refresh / ctu=64 / min-cu-size=8 / no-rect / no-amp / max-tu-size=32 / tu-inter-depth=1 / tu-intra-depth=1 / limit-tu=0 / rdoq-level=0 / dynamic-rd=0.00 / no-ssim-rd / signhide / no-tskip / nr-intra=0 / nr-inter=0 / no-constrained-intra / strong-intra-smoothing / max-merge=2 / limit-refs=3 / no-limit-modes / me=1 / subme=2 / merange=57 / temporal-mvp / weightp / no-weightb / no-analyze-src-pics / deblock=1:1 / no-sao / no-sao-non-deblock / rd=3 / no-early-skip / rskip / no-fast-intra / no-tskip-fast / no-cu-lossless / no-b-intra / no-splitrd-skip / rdpenalty=0 / psy-rd=0.40 / psy-rdoq=0.00 / no-rd-refine / no-lossless / cbqpoffs=0 / crqpoffs=0 / rc=crf / crf=14.0 / qcomp=0.60 / qpstep=4 / stats-write=0 / stats-read=0 / vbv-maxrate=160000 / vbv-bufsize=160000 / vbv-init=0.9 / crf-max=0.0 / crf-min=0.0 / ipratio=1.40 / pbratio=1.30 / aq-mode=1 / aq-strength=0.40 / cutree / zone-count=0 / no-strict-cbr / qg-size=32 / no-rc-grain / qpmax=69 / qpmin=0 / no-const-vbv / sar=1 / overscan=0 / videoformat=5 / range=0 / colorprim=9 / transfer=16 / colormatrix=9 / chromaloc=1 / chromaloc-top=2 / chromaloc-bottom=2 / display-window=0 / master-display=G(8500,39850)B(6550,2300)R(35400,14600)WP(15635,16450)L(40000000,50) / max-cll=479,134 / min-luma=0 / max-luma=1023 / log2-max-poc-lsb=8 / vui-timing-info / vui-hrd-info / slices=1 / opt-qp-pps / opt-ref-list-length-pps / no-multi-pass-opt-rps / scenecut-bias=0.05 / no-opt-cu-delta-qp / no-aq-motion / hdr / hdr-opt / no-dhdr10-opt / no-idr-recovery-sei / analysis-reuse-level=5 / scale-factor=0 / refine-intra=0 / refine-inter=0 / refine-mv=0 / refine-ctu-distortion=0 / no-limit-sao / ctu-info=0 / no-lowpass-dct / refine-analysis-type=0 / copy-pic=1 / max-ausize-factor=1.0 / no-dynamic-refine / no-single-sei / no-hevc-aq / no-svt / qp-adaptation-range=1.00

Default : Yes

Forced : No

Color range : Limited

Color primaries : BT.2020

Transfer characteristics : PQ

Matrix coefficients : BT.2020 non-constant

Mastering display color primaries : BT.2020

Mastering display luminance : min: 0.0050 cd/m2, max: 4000 cd/m2

Maximum Content Light Level : 479 cd/m2

Maximum Frame-Average Light Level : 134 cd/m2

Audio #1

ID : 2

Format : DTS XLL

Format/Info : Digital Theater Systems

Commercial name : DTS-HD Master Audio

Codec ID : A_DTS

Duration : 1 h 22 min

Bit rate mode : Variable

Bit rate : 2 374 kb/s

Channel(s) : 6 channels

Channel layout : C L R Ls Rs LFE

Sampling rate : 48.0 kHz

Frame rate : 93.750 FPS (512 SPF)

Bit depth : 24 bits

Compression mode : Lossless

Stream size : 1.37 GiB (14%)

Title : DTS-HD MA 5.1

Language : English

Default : Yes

Forced : No

Audio #2

ID : 3

Format : AC-3

Format/Info : Audio Coding 3

Commercial name : Dolby Digital

Codec ID : A_AC3

Duration : 1 h 22 min

Bit rate mode : Constant

Bit rate : 640 kb/s

Channel(s) : 6 channels

Channel layout : L R C LFE Ls Rs

Sampling rate : 48.0 kHz

Frame rate : 31.250 FPS (1536 SPF)

Compression mode : Lossy

Stream size : 379 MiB (4%)

Title : DD 5.1

Language : English

Service kind : Complete Main

Default : No

Forced : No

Text #1

ID : 4

Format : UTF-8

Codec ID : S_TEXT/UTF8

Codec ID/Info : UTF-8 Plain Text

Duration : 1 h 19 min

Bit rate : 35 b/s

Count of elements : 791

Stream size : 20.6 KiB (0%)

Title : English-SRT

Language : English

Default : Yes

Forced : No

Text #2

ID : 5

Format : PGS

Muxing mode : zlib

Codec ID : S_HDMV/PGS

Codec ID/Info : Picture based subtitle format used on BDs/HD-DVDs

Duration : 1 h 19 min

Bit rate : 18.5 kb/s

Count of elements : 1586

Stream size : 10.4 MiB (0%)

Title : English-PGS

Language : English

Default : No

Forced : No

Text #3

ID : 6

Format : PGS

Muxing mode : zlib

Codec ID : S_HDMV/PGS

Codec ID/Info : Picture based subtitle format used on BDs/HD-DVDs

Duration : 1 h 19 min

Bit rate : 24.7 kb/s

Count of elements : 1892

Stream size : 14.0 MiB (0%)

Title : English-SDH-PGS

Language : English

Default : No

Forced : No

Text #4

ID : 7

Format : PGS

Muxing mode : zlib

Codec ID : S_HDMV/PGS

Codec ID/Info : Picture based subtitle format used on BDs/HD-DVDs

Duration : 1 h 21 min

Bit rate : 18.6 kb/s

Count of elements : 1600

Stream size : 10.9 MiB (0%)

Title : Danish-PGS

Language : Danish

Default : No

Forced : No

Text #5

ID : 8

Format : PGS

Muxing mode : zlib

Codec ID : S_HDMV/PGS

Codec ID/Info : Picture based subtitle format used on BDs/HD-DVDs

Duration : 1 h 21 min

Bit rate : 18.1 kb/s

Count of elements : 1586

Stream size : 10.6 MiB (0%)

Title : Dutch-PGS

Language : Dutch

Default : No

Forced : No

Text #6

ID : 9

Format : PGS

Muxing mode : zlib

Codec ID : S_HDMV/PGS

Codec ID/Info : Picture based subtitle format used on BDs/HD-DVDs

Duration : 1 h 21 min

Bit rate : 18.1 kb/s

Count of elements : 1604

Stream size : 10.6 MiB (0%)

Title : Finnish-PGS

Language : Finnish

Default : No

Forced : No

Text #7

ID : 10

Format : PGS

Muxing mode : zlib

Codec ID : S_HDMV/PGS

Codec ID/Info : Picture based subtitle format used on BDs/HD-DVDs

Duration : 1 h 21 min

Bit rate : 23.4 kb/s

Count of elements : 1606

Stream size : 13.7 MiB (0%)

Title : French-PGS

Language : French

Default : No

Forced : No

Text #8

ID : 11

Format : PGS

Muxing mode : zlib

Codec ID : S_HDMV/PGS

Codec ID/Info : Picture based subtitle format used on BDs/HD-DVDs

Duration : 1 h 19 min

Bit rate : 22.3 kb/s

Count of elements : 1584

Stream size : 12.6 MiB (0%)

Title : German-PGS

Language : German

Default : No

Forced : No

Text #9

ID : 12

Format : PGS

Muxing mode : zlib

Codec ID : S_HDMV/PGS

Codec ID/Info : Picture based subtitle format used on BDs/HD-DVDs

Duration : 1 h 21 min

Bit rate : 17.9 kb/s

Count of elements : 1602

Stream size : 10.4 MiB (0%)

Title : Norwegian-PGS

Language : Norwegian

Default : No

Forced : No

Text #10

ID : 13

Format : PGS

Muxing mode : zlib

Codec ID : S_HDMV/PGS

Codec ID/Info : Picture based subtitle format used on BDs/HD-DVDs

Duration : 1 h 21 min

Bit rate : 19.3 kb/s

Count of elements : 1612

Stream size : 11.3 MiB (0%)

Title : Portuguese-PGS

Language : Portuguese

Default : No

Forced : No

Text #11

ID : 14

Format : PGS

Muxing mode : zlib

Codec ID : S_HDMV/PGS

Codec ID/Info : Picture based subtitle format used on BDs/HD-DVDs

Duration : 1 h 21 min

Bit rate : 19.1 kb/s

Count of elements : 1612

Stream size : 11.2 MiB (0%)

Title : Portuguese-PGS

Language : Portuguese

Default : No

Forced : No

Text #12

ID : 15

Format : PGS

Muxing mode : zlib

Codec ID : S_HDMV/PGS

Codec ID/Info : Picture based subtitle format used on BDs/HD-DVDs

Duration : 1 h 21 min

Bit rate : 18.3 kb/s

Count of elements : 1614

Stream size : 10.7 MiB (0%)

Title : Russian-PGS

Language : Russian

Default : No

Forced : No

Text #13

ID : 16

Format : PGS

Muxing mode : zlib

Codec ID : S_HDMV/PGS

Codec ID/Info : Picture based subtitle format used on BDs/HD-DVDs

Duration : 1 h 21 min

Bit rate : 18.0 kb/s

Count of elements : 1600

Stream size : 10.5 MiB (0%)

Title : Swedish-PGS

Language : Swedish

Default : No

Forced : No

Menu

00:00:00.000 : en:Chapter 1

00:05:18.902 : en:Chapter 2

00:12:03.222 : en:Chapter 3

00:19:55.569 : en:Chapter 4

00:26:51.735 : en:Chapter 5

00:31:52.577 : en:Chapter 6

00:38:59.587 : en:Chapter 7

00:46:00.132 : en:Chapter 8

00:52:09.335 : en:Chapter 9

01:00:06.311 : en:Chapter 10

01:08:15.675 : en:Chapter 11

01:14:33.344 : en:Chapter 12

01:20:04.383 : en:Chapter 13

Batman.Soul.of.the.Dragon.202Download Torrent Magnet

#BatmanSouloftheDragon202