Basta 2021 Marathi 4K UHD WEB Full Torrent Magnet Download

Download Torrent Basta 2021 Marathi 4K UHD WEB Movie Full in HD Result. Movie Basta 2021 Marathi 4K UHD WEB Torrent Download full. Movie Basta 2021 Marathi 4K UHD WEB torrent Magnet Download Full. Basta 2021 Marathi 4K UHD WEB Full Movie Torrent Download And Magnet Download For your PC And Mobiles. Latest Movie Basta 2021 Marathi 4K UHD WEB Download Link In Bottom.

Torrent And Magnet Links Below










General

Complete name : Basta 2021 Marathi 4K UHD WEBRip x264 AAC ESubs [TMB].mp4

Format : MPEG-4

Format profile : Base Media / Version 2

Codec ID : mp42 (mp42/iso2/avc1/mp41)

File size : 7.37 GiB

Duration : 1 h 52 min

Overall bit rate mode : Variable

Overall bit rate : 9 358 kb/s

Video

Format : AVC

Format/Info : Advanced Video Codec

Format profile : [email protected]
Format settings : CABAC / 1 Ref Frames

Format settings, CABAC : Yes

Format settings, Reference : 1 frame

Codec ID : avc1

Codec ID/Info : Advanced Video Coding

Duration : 1 h 52 min

Bit rate : 9 294 kb/s

Width : 3 840 pixels

Height : 1 616 pixels

Display aspect ratio : 2.40:1

Frame rate mode : Variable

Frame rate : 25.000 FPS

Minimum frame rate : 14.286 FPS

Maximum frame rate : 25.000 FPS

Color space : YUV

Chroma subsampling : 4:2:0

Bit depth : 8 bits

Scan type : Progressive

Bits/(Pixel*Frame) : 0.060

Stream size : 7.32 GiB (99%)

Audio

Format : AAC LC SBR

Format/Info : Advanced Audio Codec Low Complexity with Spectral Band Replication

Commercial name : HE-AAC

Format settings : Explicit

Codec ID : mp4a-40-2

Duration : 1 h 52 min

Bit rate mode : Constant

Bit rate : 64.0 kb/s

Channel(s) : 2 channels

Channel layout : L R

Sampling rate : 96.0 kHz

Frame rate : 46.875 FPS (2048 SPF)

Compression mode : Lossy

Stream size : 51.6 MiB (1%)

Language : Marathi

Text

Format : Timed Text

Muxing mode : sbtl

Codec ID : tx3g

Duration : 1 h 47 min

Bit rate mode : Variable

Bit rate : 147 b/s

Stream size : 116 KiB (0%)

Source : 1080p Web-DL @ Telly

Uploaded & Shared by TMB

Seeding 24×7… Extreme Seeding…

Enjoy!

Basta 2021 Marathi 4K UHD WEBDownload Torrent Magnet

#Basta #Marathi #UHD #WEB