Barb.and.Star.Go.to.Vista.Del Full Torrent Magnet Download

Download Torrent Barb.and.Star.Go.to.Vista.Del Movie Full in HD Result. Movie Barb.and.Star.Go.to.Vista.Del Torrent Download full. Movie Barb.and.Star.Go.to.Vista.Del torrent Magnet Download Full. Barb.and.Star.Go.to.Vista.Del Full Movie Torrent Download And Magnet Download For your PC And Mobiles. Latest Movie Barb.and.Star.Go.to.Vista.Del Download Link In Bottom.

Torrent And Magnet Links Below

https://www.imdb.com/title/tt3797512/

Code:

Video

ID : 1

Format : HEVC

Format/Info : High Efficiency Video Coding

Format profile : Main [email protected]@Main

HDR format : SMPTE ST 2086, HDR10 compatible

Codec ID : V_MPEGH/ISO/HEVC

Duration : 1 h 46 min

Bit rate : 14.8 Mb/s

Width : 3 840 pixels

Height : 2 160 pixels

Display aspect ratio : 16:9

Frame rate mode : Constant

Frame rate : 23.976 (24000/1001) FPS

Color space : YUV

Chroma subsampling : 4:2:0 (Type 2)

Bit depth : 10 bits

Bits/(Pixel*Frame) : 0.074

Stream size : 11.0 GiB (96%)

Default : Yes

Forced : No

Color range : Limited

Color primaries : BT.2020

Transfer characteristics : PQ

Matrix coefficients : BT.2020 non-constant

Mastering display color primaries : BT.2020

Mastering display luminance : min: 0.0001 cd/m2, max: 1000 cd/m2

Maximum Content Light Level : 1000 cd/m2

Maximum Frame-Average Light Level : 938 cd/m2

Audio

ID : 2

Format : E-AC-3

Format/Info : Enhanced AC-3

Commercial name : Dolby Digital Plus

Codec ID : A_EAC3

Duration : 1 h 46 min

Bit rate mode : Constant

Bit rate : 256 kb/s

Channel(s) : 6 channels

Channel layout : L R C LFE Ls Rs

Sampling rate : 48.0 kHz

Frame rate : 31.250 FPS (1536 SPF)

Compression mode : Lossy

Stream size : 196 MiB (2%)

Language : English

Service kind : Complete Main

Default : Yes

Forced : No

Text

ID : 3

Format : UTF-8

Codec ID : S_TEXT/UTF8

Codec ID/Info : UTF-8 Plain Text

Language : English

Default : No

Forced : No

Barb.and.Star.Go.to.Vista.DelDownload Torrent Magnet

#BarbandStarGotoVistaDel